<?xml version="1.0" standalone="no"?>
<!DOCTYPE svg PUBLIC "-//W3C//DTD SVG 1.1//EN" "http://www.w3.org/Graphics/SVG/1.1/DTD/svg11.dtd" >
<svg>
<metadata>
Created by FontForge 20110222 at Tue Sep 10 03:06:24 2013
 By Orthosie Webmaster
(c) 2000 Borna Rayaneh
</metadata>
<defs>
<font id="BMitra" horiz-adv-x="0" >
  <font-face 
    font-family="B Mitra"
    font-weight="400"
    font-stretch="normal"
    units-per-em="2048"
    panose-1="0 0 4 0 0 0 0 0 0 0"
    ascent="1638"
    descent="-410"
    bbox="-218 -933 2006 1884"
    underline-thickness="60"
    underline-position="-670"
    unicode-range="U+0020-FEFC"
  />
<missing-glyph horiz-adv-x="1024" 
d="M128 0v1360h768v-1360h-768zM256 128h512v1104h-512v-1104z" />
    <glyph glyph-name="uE818" unicode="&#x651;&#x64b;" 
d="M365 1400q0 -128 -78 -128q-49 0 -62 58q-22 -101 -91 -101q-56 0 -71 62q-7 29 -6 108q9 3 48 20q5 -112 34 -112q36 0 46 56q3 38 5 76l50 14q7 -101 40 -101q27 0 31 45q0 11 -2 85l47 15q9 -65 9 -97zM346 1802l-312 -125v79l312 128v-82zM346 1637l-312 -125v80
l312 127v-82z" />
    <glyph glyph-name="uFC5E" unicode="&#x651;&#x64c;" arabic-form="isolated" 
d="M395 1363q0 -128 -78 -128q-49 0 -62 58q-22 -101 -91 -101q-56 0 -71 62q-7 29 -6 108q9 3 48 20q5 -112 34 -112q36 0 46 56q3 38 5 76l50 14q7 -101 40 -101q27 0 31 45q0 11 -2 85l47 15q9 -65 9 -97zM366 1642q2 -12 2 -23q0 -24 -8 -47q-21 8 -63 20
q-36 -140 -170 -193q-3 15 0 74q2 49 -10 73q-19 -13 -65 -40l-6 88q34 18 85 44q29 -35 29 -132q49 16 93 103q-113 58 -113 85q0 52 38 104q40 57 90 57q63 0 63 -99q0 -41 -12 -97q7 -2 47 -17zM283 1746q0 49 -32 49q-34 0 -57 -65q20 -19 75 -55q14 34 14 71z" />
    <glyph glyph-name="uFC5F" unicode="&#x651;&#x64d;" arabic-form="isolated" 
d="M385 1739q0 -128 -78 -128q-49 0 -62 58q-22 -101 -91 -101q-56 0 -71 62q-7 29 -6 108q9 3 48 20q5 -112 34 -112q36 0 46 56q3 38 5 76l50 14q7 -101 40 -101q27 0 31 45q0 11 -2 85l47 15q9 -65 9 -97zM406 1507l-313 -125v79l313 128v-82zM406 1342l-313 -125v79
l313 128v-82z" />
    <glyph glyph-name="uFC60" unicode="&#x651;&#x64e;" arabic-form="isolated" 
d="M375 1372q0 -128 -78 -128q-49 0 -62 58q-22 -101 -91 -101q-56 0 -71 62q-7 29 -6 108q9 3 48 20q5 -112 34 -112q36 0 46 56q3 38 5 76l50 14q7 -101 40 -101q27 0 31 45q0 11 -2 85l47 15q9 -65 9 -97zM353 1551l-312 -125v79l312 128v-82z" />
    <glyph glyph-name="uFC61" unicode="&#x651;&#x64f;" arabic-form="isolated" 
d="M404 1362q0 -128 -78 -128q-49 0 -62 58q-22 -101 -91 -101q-56 0 -71 62q-7 29 -6 108q9 3 48 20q5 -112 34 -112q36 0 46 56q3 38 5 76l50 14q7 -101 40 -101q27 0 31 45q0 11 -2 85l47 15q9 -65 9 -97zM401 1528q-19 6 -75 25q-52 -60 -86 -87q-61 -47 -149 -76v82
q119 30 179 100q-109 58 -109 71q0 49 45 110q50 68 108 68q30 0 48 -38q15 -31 15 -63q0 -43 -23 -102q22 -10 47 -16v-74zM325 1698q0 19 -13 38t-31 19q-36 0 -66 -71q47 -38 95 -55q15 41 15 69z" />
    <glyph glyph-name="uFC62" unicode="&#x651;&#x650;" arabic-form="isolated" 
d="M375 1670q0 -128 -78 -128q-49 0 -62 58q-22 -101 -91 -101q-56 0 -71 62q-7 29 -6 108q9 3 48 20q5 -112 34 -112q36 0 46 56q3 38 5 76l50 14q7 -101 40 -101q27 0 31 45q0 11 -2 85l47 15q9 -65 9 -97zM396 1423l-313 -125v79l313 128v-82z" />
    <glyph glyph-name="uFDF2" unicode="&#xfedf;&#xfee0;&#xfeea;" horiz-adv-x="1355" arabic-form="isolated" 
d="M1041 1098q-11 -27 -46 -56q-14 96 -51 155q24 14 71 51q26 -83 26 -150zM1165 1069q3 -25 3 -53q0 -139 -83 -139q-48 0 -70 29q-15 -21 -29 -42q-24 -24 -67 -24q-61 0 -61 98q0 27 5 60h46q0 -75 28 -75q48 0 63 83l48 4q3 -55 28 -53q34 2 34 87zM1354 236
q0 -68 -57 -141q-68 -86 -162 -86q-113 0 -156 124q-118 -157 -259 -157q-106 0 -157 103q-38 76 -36 169q-70 -90 -103 -107q-137 15 -187 29q-85 25 -107 76q0 16 26 89.5t35 80.5q32 37 158 86q99 38 178 57l-2 91q38 39 97 104q7 -34 2 -172l-7 -198q-9 -263 130 -263
q65 0 134 49q60 43 59 63q-11 193 -25 455q27 33 90 109q4 -122 25 -468q4 -62 32 -114q35 -64 91 -64q29 0 73 22q50 25 47 51q-12 105 -67 544q27 37 93 116q55 -559 55 -648zM525 277q3 19 3 56q0 48 -5 125q-71 -8 -142 -37q-96 -39 -132 -99q51 -46 227 -46q24 0 49 1z
" />
    <glyph glyph-name="uFEF5" unicode="&#xfedf;&#xfe82;" horiz-adv-x="1131" arabic-form="isolated" 
d="M1124 945q1 -11 -1.5 -13t-4.5 -2q-4 0 -10 6q-18 9 -53 25q-7 -72 -74 -327q-41 -156 -122 -314q50 -116 50 -167q0 -107 -26 -125q-99 -28 -359 -28l30 145q63 28 130 88q56 49 77 83q-73 131 -211 281q-56 61 -144 138q-72 63 -77 65q-22 -27 -29 -27q-18 10 -70 50
q-59 46 -71 61q14 127 36 191q456 -328 614 -680q49 94 93 292q48 216 58 425q31 19 135 88q7 -63 29 -255zM833 146q2 61 -34 106q-58 -73 -127 -118q97 0 161 12zM439 1328q0 -23 -68 -49q-53 -20 -89 -23q-54 -4 -95 -5q-8 -13 -18 -48q-7 -24 -15 -24q-42 0 -42 13
q0 47 15 102q13 50 34 50q14 0 41.5 -6.5t41.5 -6.5q88 0 193 53q2 -11 2 -56z" />
    <glyph glyph-name="uFEF6" unicode="&#xfee0;&#xfe82;" horiz-adv-x="1222" arabic-form="final" 
d="M1248 1h-61q-115 0 -166 169q-40 130 -40 342q0 -1 4 265q-83 -352 -206 -534q-79 -117 -226 -215q-74 -18 -185 -31q-50 -6 -262 1q-14 0 -16 4q0 17 98 49q175 57 200 67q190 74 278 151q-23 105 -32 129q-47 124 -171 281q-11 14 -125 131l-39 -24q-128 114 -128 133
q0 44 37 190q5 19 26 1q140 -120 321 -352q85 -110 124 -213q29 -77 51 -207q141 211 246 754q44 57 84 109q4 5 12 13q3 -3 3 -22q2 -156 17 -768q7 -284 108 -284h48v-139zM439 1372q0 -24 -68 -50q-55 -21 -90 -23q-30 -2 -94 -4q-8 -14 -18 -49q-7 -24 -15 -24
q-42 0 -42 13q0 40 10 86q14 66 39 66q14 0 41.5 -6.5t41.5 -6.5q88 0 193 53q2 -11 2 -55z" />
    <glyph glyph-name="uFEF7" unicode="&#xfedf;&#xfe84;" horiz-adv-x="1071" arabic-form="isolated" 
d="M1063 945q1 -10 -1 -13q-1 -1 -68 29q-6 -69 -73 -327q-42 -163 -123 -314q49 -107 49 -167q0 -108 -25 -125q-98 -28 -358 -28l29 145q64 28 131 88q56 49 76 83q-75 134 -210 281q-51 55 -145 138q-70 62 -77 65q-23 -27 -29 -27q-22 13 -70 50q-56 43 -70 61
q14 132 34 191q455 -327 615 -680q49 93 93 292q48 217 58 425q31 19 135 88q7 -54 29 -255zM772 146q3 60 -34 106q-58 -73 -126 -118q97 0 160 12zM426 1374q2 -10 -9.5 -46.5t-19.5 -37.5q-23 -3 -82 -15q-90 -21 -214 -96q1 32 4 66q23 18 97 54q-80 40 -80 93
q0 42 61.5 98.5t104.5 56.5q57 0 115 -55l-59 -57q-38 33 -68 33q-22 0 -51 -16q-34 -18 -34 -37q0 -22 37 -48.5t61 -26.5q55 15 137 34z" />
    <glyph glyph-name="uFEF8" unicode="&#xfee0;&#xfe84;" horiz-adv-x="1222" arabic-form="final" 
d="M1248 1h-61q-115 0 -166 169q-40 130 -40 342q0 -1 4 265q-83 -352 -206 -534q-79 -117 -226 -215q-74 -18 -185 -31q-50 -6 -262 1q-14 0 -16 4q0 17 98 49q175 57 200 67q190 74 278 151q-23 105 -32 129q-47 124 -171 281q-11 14 -125 131l-39 -24q-128 114 -128 133
q0 44 37 190q5 19 26 1q140 -120 321 -352q85 -110 124 -213q29 -77 51 -207q141 211 246 754q44 57 84 109q4 5 12 13q3 -3 3 -22q2 -156 17 -768q7 -284 108 -284h48v-139zM487 1392q1 -11 -10.5 -47t-18.5 -37q-54 -10 -82 -15q-103 -28 -215 -97q2 33 5 65q25 21 97 55
q-81 40 -81 93q0 42 61.5 98.5t104.5 56.5q59 0 116 -54l-60 -58q-37 34 -67 34q-22 0 -52 -16q-34 -18 -34 -37q0 -21 39 -49q36 -27 59 -27q16 0 66 16q55 17 72 19z" />
    <glyph glyph-name="uFEF9" unicode="&#xfedf;&#xfe88;" horiz-adv-x="1071" arabic-form="isolated" 
d="M1063 945q1 -10 -1 -13q-1 -1 -68 29q-6 -69 -73 -327q-42 -163 -123 -314q49 -107 49 -167q0 -108 -25 -125q-98 -28 -358 -28l29 145q64 28 131 88q56 49 76 83q-75 134 -210 281q-51 55 -145 138q-70 62 -77 65q-23 -27 -29 -27q-22 13 -70 50q-56 43 -70 61
q14 132 34 191q455 -327 615 -680q49 93 93 292q48 217 58 425q31 19 135 88q7 -54 29 -255zM772 146q3 60 -34 106q-58 -73 -126 -118q97 0 160 12zM621 -269q1 -10 -11 -46.5t-17 -37.5q-23 -3 -83 -15q-91 -21 -215 -97q2 33 5 67q27 20 97 54q-80 39 -80 93
q0 42 61.5 98.5t104.5 56.5q57 0 115 -55l-60 -57q-36 33 -67 33q-22 0 -52 -16q-34 -18 -34 -37q0 -22 37.5 -48.5t60.5 -26.5q20 0 67 15q53 17 71 19z" />
    <glyph glyph-name="uFEFA" unicode="&#xfee0;&#xfe88;" horiz-adv-x="1222" arabic-form="final" 
d="M1248 1h-61q-115 0 -166 169q-40 130 -40 342q0 -1 4 265q-83 -352 -206 -534q-79 -117 -226 -215q-74 -18 -185 -31q-50 -6 -262 1q-14 0 -16 4q0 17 98 49q175 57 200 67q190 74 278 151q-23 105 -32 129q-47 124 -171 281q-11 14 -125 131l-39 -24q-128 114 -128 133
q0 44 37 190q5 19 26 1q140 -120 321 -352q85 -110 124 -213q29 -77 51 -207q141 211 246 754q44 57 84 109q4 5 12 13q3 -3 3 -22q2 -156 17 -768q7 -284 108 -284h48v-139zM621 -269q1 -10 -11 -46.5t-17 -37.5q-23 -3 -83 -15q-91 -21 -215 -97q2 33 5 67q27 20 97 54
q-80 39 -80 93q0 42 61.5 98.5t104.5 56.5q57 0 115 -55l-60 -57q-36 33 -67 33q-22 0 -52 -16q-34 -18 -34 -37q0 -22 37.5 -48.5t60.5 -26.5q20 0 67 15q53 17 71 19z" />
    <glyph glyph-name="uFEFB" unicode="&#xfedf;&#xfe8e;" horiz-adv-x="1071" arabic-form="isolated" 
d="M1063 945q1 -10 -1 -13q-1 -1 -68 29q-6 -69 -73 -327q-42 -163 -123 -314q49 -107 49 -167q0 -108 -25 -125q-98 -28 -358 -28l29 145q64 28 131 88q56 49 76 83q-75 134 -210 281q-51 55 -145 138q-70 62 -77 65q-23 -27 -29 -27q-22 13 -70 50q-56 43 -70 61
q14 132 34 191q455 -327 615 -680q49 93 93 292q48 217 58 425q31 19 135 88q7 -54 29 -255zM772 146q3 60 -34 106q-58 -73 -126 -118q97 0 160 12z" />
    <glyph glyph-name="uFEFC" unicode="&#xfee0;&#xfe8e;" horiz-adv-x="1222" arabic-form="final" 
d="M1248 1h-61q-115 0 -166 169q-40 130 -40 342q0 -1 4 265q-83 -352 -206 -534q-79 -117 -226 -215q-74 -18 -185 -31q-50 -6 -262 1q-14 0 -16 4q0 17 98 49q175 57 200 67q190 74 278 151q-23 105 -32 129q-47 124 -171 281q-11 14 -125 131l-39 -24q-128 114 -128 133
q0 44 37 190q5 19 26 1q140 -120 321 -352q85 -110 124 -213q29 -77 51 -207q141 211 246 754q44 57 84 109q4 5 12 13q3 -3 3 -22q2 -156 17 -768q7 -284 108 -284h48v-139z" />
    <glyph glyph-name="u0652_u064E.liga" unicode="&#x652;&#x64e;" horiz-adv-x="1" 
d="M166 1261l-4 -302l-47 28l3 303z" />
    <glyph glyph-name="u0652_u064B.liga" unicode="&#x652;&#x64b;" horiz-adv-x="1" 
d="M487 837l-98 -102l-107 96l104 103zM265 828l-99 -101l-105 95l103 103z" />
    <glyph glyph-name="u0652_u064D.liga" unicode="&#x652;&#x64d;" horiz-adv-x="1" 
d="M713 -671l-98 -102l-107 96l104 103zM491 -680l-99 -101l-105 95l103 103z" />
    <glyph glyph-name="u0622" unicode="&#x622;" horiz-adv-x="394" arabic-form="isolated" 
d="M387 1381q0 -24 -68 -50q-55 -21 -90 -23q-51 -3 -94 -5q-8 -13 -18 -48q-7 -24 -16 -24q-41 0 -41 13q0 47 15 102q13 50 34 50q14 0 41.5 -6.5t41.5 -6.5q90 0 192 53q3 -12 3 -55zM320 101q0 -15 -60 -108q-4 -6 -13 -18q-3 3 -3 22q0 278 -13 624q-4 103 -31 311
q-26 200 -26 177q18 23 100 114q9 10 12 -1q34 -119 34 -410v-711z" />
    <glyph glyph-name="u0623" unicode="&#x623;" horiz-adv-x="377" arabic-form="isolated" 
d="M353 1392q1 -8 -8.5 -38.5t-15.5 -32.5q-19 -3 -70 -13q-75 -17 -180 -81q1 27 3 56q25 17 82 45q-67 32 -67 78q0 36 51.5 83.5t87.5 47.5q48 0 96 -47l-50 -48q-28 28 -55 28q-20 0 -44 -13q-28 -15 -28 -32t31.5 -40t49.5 -23q12 0 55 13q49 15 62 17zM320 101
q0 -15 -60 -108q-4 -6 -13 -18q-3 3 -3 22q0 278 -13 624q-4 103 -31 311q-26 200 -26 177q18 23 100 114q9 10 12 -1q34 -119 34 -410v-711z" />
    <glyph glyph-name="u0624" unicode="&#x624;" horiz-adv-x="637" arabic-form="isolated" 
d="M476 773q1 -11 -10.5 -47t-18.5 -37q-52 -10 -83 -15q-102 -28 -214 -97q1 33 5 66q27 21 96 54q-80 40 -80 93q0 42 61.5 99t104.5 57q58 0 115 -55l-59 -57q-38 33 -67 33q-22 0 -52 -16q-34 -18 -34 -37q0 -22 37 -49t61 -27q7 2 46 14q48 15 92 21zM633 114
q0 -174 -80 -334q-41 -82 -144 -204q-71 -84 -93 -84q-97 0 -198 56q-24 13 -25 18q0 6 23 15q138 53 250 152q159 140 183 279q-51 -10 -152 -10q-36 0 -87 12q-63 15 -76 34q-19 28 -15 135q4 115 84 214q69 86 117 86q55 0 121 -77q92 -108 92 -292zM539 165
q0 58 -43 113q-45 60 -101 60q-32 0 -57 -56q-21 -48 -21 -85q0 -58 95 -58q81 0 127 26z" />
    <glyph glyph-name="u0625" unicode="&#x625;" horiz-adv-x="382" arabic-form="isolated" 
d="M337 101q0 -18 -60 -108q-9 -17 -12 -18q-4 3 -4 22q0 279 -13 624q-9 238 -36 394q-5 31 -18 93q-2 8 -2 1q0 16 99 114q10 10 12 -1q34 -116 34 -410v-711zM408 -240q0 -9 -10 -39.5t-15 -31.5q-19 -3 -70 -13q-75 -17 -180 -81q1 27 4 56q25 18 82 46q-67 31 -67 77
q0 36 51.5 83.5t87.5 47.5q48 0 96 -46l-50 -49q-28 28 -55 28q-19 0 -44 -13q-29 -15 -29 -32t32 -40t50 -23q11 0 55 13q48 15 62 17z" />
    <glyph glyph-name="u0626" unicode="&#x626;" horiz-adv-x="1296" arabic-form="isolated" 
d="M1294 603q-47 -152 -52 -152q-131 0 -165 -14q-55 -23 -139 -118q-78 -89 -78 -114q0 -43 127 -80q112 -32 137 -45q68 -34 68 -92q0 -21 -22.5 -108t-31.5 -95q-33 -27 -224 -93q-251 -87 -428 -87q-145 0 -243 67q-112 77 -112 216q0 90 57 218q14 32 52 100
q46 82 56 82q12 0 33.5 -11t21.5 -21q0 22 -5 22q-12 0 -50 -109q-55 -158 -55 -201q0 -113 87 -169q73 -48 192 -48q209 0 474 104q112 44 112 68t-103 56q-139 43 -159 53q-76 38 -76 82q0 55 55 176q154 340 377 340q102 0 94 -27zM520 554q1 -11 -11.5 -47.5
t-16.5 -36.5q-42 -8 -84 -15q-102 -28 -213 -98q0 33 3 67q31 23 97 54q-79 40 -79 93q0 42 61.5 98.5t104.5 56.5q58 0 114 -55l-59 -57q-36 33 -67 33q-23 0 -52 -15q-34 -17 -34 -37q0 -22 39 -50q36 -26 60 -26q55 16 137 35z" />
    <glyph glyph-name="u0627" unicode="&#x627;" horiz-adv-x="283" arabic-form="isolated" 
d="M276 101q0 -26 -59 -108q-9 -17 -13 -18q-4 4 -4 22q-2 174 -9 458l-4 166q-3 105 -30 311q-26 203 -26 177q0 15 100 114q9 9 12 -1q33 -115 33 -410v-711z" />
    <glyph glyph-name="u0628" unicode="&#x628;" horiz-adv-x="1309" arabic-form="isolated" 
d="M1308 294q0 -29 -28.5 -99t-48.5 -86q-50 -38 -272 -79q-213 -39 -372 -39q-456 0 -456 259q0 78 47 185q43 97 59 97q7 0 25 -11t18 -17q0 13 -3 14q-6 0 -25 -64q-28 -93 -28 -124q0 -199 399 -199q147 0 311 24q287 42 287 81q0 35 -73 160l76 134q10 17 13 1
q71 -172 71 -237zM796 -259l-102 -108l-116 100l108 112z" />
    <glyph glyph-name="u0629" unicode="&#x629;" horiz-adv-x="599" arabic-form="isolated" 
d="M598 244q0 -29 -26.5 -94t-47.5 -87q-57 -62 -212 -62q-80 0 -129 42q-52 44 -52 122q0 67 57 200q14 32 105 242q305 -136 305 -363zM511 196q0 127 -204 242q-80 -167 -80 -218q0 -36 40 -62q35 -24 73 -24q32 0 96 18q75 21 75 44zM467 859q2 -11 -10 -47.5t-19 -36.5
q-41 -8 -82 -15q-102 -28 -214 -97q1 32 4 66q31 23 97 55q-80 38 -80 92q0 42 61.5 98.5t104.5 56.5q59 0 115 -54l-60 -57q-37 32 -67 32q-22 0 -51 -16q-34 -18 -34 -37q0 -21 39 -49q36 -26 59 -26q7 3 46 14q48 14 91 21z" />
    <glyph glyph-name="u062A" unicode="&#x62a;" horiz-adv-x="1309" arabic-form="isolated" 
d="M880 718l-99 -102l-106 95l103 104zM658 708l-99 -100l-106 95l104 103zM1308 294q0 -29 -28.5 -99t-48.5 -86q-50 -38 -272 -79q-213 -39 -372 -39q-456 0 -456 259q0 78 47 185q43 97 59 97q7 0 25 -11t18 -17q0 13 -3 14q-6 0 -25 -64q-28 -93 -28 -124
q0 -199 399 -199q147 0 311 24q287 42 287 81q0 35 -73 160l76 134q10 17 13 1q71 -172 71 -237z" />
    <glyph glyph-name="u062B" unicode="&#x62b;" horiz-adv-x="1309" arabic-form="isolated" 
d="M804 767l-97 -90l-95 95l96 90zM911 586l-96 -90l-95 96l96 90zM696 588l-96 -90l-95 96l96 89zM1308 294q0 -29 -28.5 -99t-48.5 -86q-50 -38 -272 -79q-213 -39 -372 -39q-456 0 -456 259q0 78 47 185q43 97 59 97q7 0 25 -11t18 -17q0 13 -3 14q-6 0 -25 -64
q-28 -93 -28 -124q0 -199 399 -199q147 0 311 24q287 42 287 81q0 35 -73 160l76 134q10 17 13 1q71 -172 71 -237z" />
    <glyph glyph-name="u062C" unicode="&#x62c;" horiz-adv-x="947" arabic-form="isolated" 
d="M1004 -399q-57 -77 -66 -81q-84 -40 -278 -40q-207 0 -350 77q-179 96 -179 286q0 349 474 539q-204 68 -288 68q-46 0 -97 -98l-51 12q46 112 69 153q48 84 92 84q48 0 212.5 -53.5t250.5 -53.5q81 0 124 5q17 2 21 0q5 -2 2 -11q-1 -3 -4 -13q-12 -36 -52 -111
q-143 -10 -286 -75q-146 -66 -243 -168q-87 -92 -87 -215q0 -172 173 -249q126 -56 322 -56q114 0 214 18q33 6 37 3q3 -3 -10 -21zM763 -45l-109 -115l-123 106l115 120z" />
    <glyph glyph-name="u062D" unicode="&#x62d;" horiz-adv-x="947" arabic-form="isolated" 
d="M1004 -399q-57 -77 -66 -81q-84 -40 -278 -40q-207 0 -350 77q-179 96 -179 286q0 349 474 539q-204 68 -288 68q-46 0 -97 -98l-51 12q46 112 69 153q48 84 92 84q48 0 212.5 -53.5t250.5 -53.5q81 0 124 5q17 2 21 0q5 -2 2 -11q-1 -3 -4 -13q-12 -36 -52 -111
q-143 -10 -286 -75q-146 -66 -243 -168q-87 -92 -87 -215q0 -172 173 -249q126 -56 322 -56q114 0 214 18q33 6 37 3q3 -3 -10 -21z" />
    <glyph glyph-name="u062E" unicode="&#x62e;" horiz-adv-x="947" arabic-form="isolated" 
d="M687 933l-101 -108l-116 99l108 112zM1004 -399q-57 -77 -66 -81q-84 -40 -278 -40q-207 0 -350 77q-179 96 -179 286q0 349 474 539q-204 68 -288 68q-46 0 -97 -98l-51 12q46 112 69 153q48 84 92 84q48 0 212.5 -53.5t250.5 -53.5q81 0 124 5q17 2 21 0q5 -2 2 -11
q-1 -3 -4 -13q-12 -36 -52 -111q-143 -10 -286 -75q-146 -66 -243 -168q-87 -92 -87 -215q0 -172 173 -249q126 -56 322 -56q114 0 214 18q33 6 37 3q3 -3 -10 -21z" />
    <glyph glyph-name="u062F" unicode="&#x62f;" horiz-adv-x="640" arabic-form="isolated" 
d="M640 303q0 -51 -21 -131q-16 -61 -24 -77q-17 -24 -120 -58q-119 -39 -220 -39q-86 0 -120 22q-9 89 15 203q1 7 20 7q18 0 20 -7q4 -52 14 -63q17 -19 89 -19q44 0 142 23q109 26 123 49q8 13 1 64q-18 130 -112 222q-64 63 -113 91q-12 7 -74 39l30 133q5 23 25 13
q138 -71 228 -193q97 -133 97 -279z" />
    <glyph glyph-name="u0630" unicode="&#x630;" horiz-adv-x="640" arabic-form="isolated" 
d="M375 1127l-101 -107l-117 100l109 112zM640 303q0 -51 -21 -131q-16 -61 -24 -77q-17 -24 -120 -58q-119 -39 -220 -39q-86 0 -120 22q-9 89 15 203q1 7 20 7q18 0 20 -7q4 -52 14 -63q17 -19 89 -19q44 0 142 23q109 26 123 49q8 13 1 64q-18 130 -112 222
q-64 63 -113 91q-12 7 -74 39l30 133q5 23 25 13q138 -71 228 -193q97 -133 97 -279z" />
    <glyph glyph-name="u0631" unicode="&#x631;" horiz-adv-x="574" arabic-form="isolated" 
d="M571 109q0 -147 -91 -320q-35 -67 -95 -141q-76 -94 -118 -94q-74 0 -176 38q-19 7 -20 12q3 5 20 13q122 55 251 178q150 142 150 239q0 79 -122 223q0 8 54 157q6 16 15 4q41 -56 82 -143q50 -107 50 -166z" />
    <glyph glyph-name="u0632" unicode="&#x632;" horiz-adv-x="574" arabic-form="isolated" 
d="M545 737l-102 -107l-116 100l108 112zM571 109q0 -147 -91 -320q-35 -67 -95 -141q-76 -94 -118 -94q-74 0 -176 38q-19 7 -20 12q3 5 20 13q122 55 251 178q150 142 150 239q0 79 -122 223q0 8 54 157q6 16 15 4q41 -56 82 -143q50 -107 50 -166z" />
    <glyph glyph-name="u0633" unicode="&#x633;" horiz-adv-x="1716" arabic-form="isolated" 
d="M1714 266q0 -77 -74 -167q-81 -98 -173 -98q-53 0 -95.5 33t-55.5 84q-62 -117 -165 -117q-53 0 -86 25q9 -116 0 -181q-11 -77 -36 -114q-72 -105 -256 -176q-164 -63 -309 -63q-141 0 -232 68q-101 75 -101 212q0 80 45 196q74 192 94 192q11 0 32 -11.5t21 -20.5
q0 19 -4 20q-8 0 -36 -106q-41 -152 -41 -193q0 -206 267 -206q107 0 249 50q153 54 218 124q7 6 7 52q0 74 -30.5 174.5t-70.5 164.5q0 8 54 162q8 23 19 0q18 -38 74 -158q42 -71 118 -71q123 0 144 204q14 8 30 8t34 -8q0 -99 18 -141q26 -61 102 -61q57 0 108 39
q45 34 45 59q0 18 -86 137l61 146q10 24 21 6q28 -46 56 -122q34 -92 34 -142z" />
    <glyph glyph-name="u0634" unicode="&#x634;" horiz-adv-x="1716" arabic-form="isolated" 
d="M1447 925l-98 -90l-95 96l97 90zM1554 746l-97 -91l-96 95l98 91zM1339 747l-97 -90l-95 95l97 90zM1714 266q0 -77 -74 -167q-81 -98 -173 -98q-53 0 -95.5 33t-55.5 84q-62 -117 -165 -117q-53 0 -86 25q9 -116 0 -181q-11 -77 -36 -114q-72 -105 -256 -176
q-164 -63 -309 -63q-141 0 -232 68q-101 75 -101 212q0 80 45 196q74 192 94 192q11 0 32 -11.5t21 -20.5q0 19 -4 20q-8 0 -36 -106q-41 -152 -41 -193q0 -206 267 -206q107 0 249 50q153 54 218 124q7 6 7 52q0 74 -30.5 174.5t-70.5 164.5q0 8 54 162q8 23 19 0
q18 -38 74 -158q42 -71 118 -71q123 0 144 204q14 8 30 8t34 -8q0 -99 18 -141q26 -61 102 -61q57 0 108 39q45 34 45 59q0 18 -86 137l61 146q10 24 21 6q28 -46 56 -122q34 -92 34 -142z" />
    <glyph glyph-name="u0635" unicode="&#x635;" horiz-adv-x="1920" arabic-form="isolated" 
d="M1917 276q0 -23 -63 -86q-54 -53 -86 -74q-180 -115 -362 -115h-264q-49 0 -77 25q9 -116 0 -181q-11 -77 -36 -114q-71 -104 -256 -174q-164 -62 -309 -62q-142 0 -232 66q-101 74 -101 211q0 123 100 319q34 66 41 66q51 0 51 -26l-40 -105q-41 -108 -41 -177
q0 -108 84 -162q72 -47 185 -47q112 0 251 54.5t219 130.5q3 15 3 36q0 75 -30.5 179.5t-71.5 167.5q14 58 54 162q9 23 19 0q52 -113 67 -141q48 -86 90 -86q16 0 32 14q122 130 230 223q150 129 296 129q105 0 176 -64.5t71 -168.5zM1798 236q0 62 -61 112q-58 47 -121 47
q-148 0 -398 -257h229q140 0 254 41q97 35 97 57z" />
    <glyph glyph-name="u0636" unicode="&#x636;" horiz-adv-x="1920" arabic-form="isolated" 
d="M1679 881l-101 -108l-116 99l108 113zM1917 276q0 -23 -63 -86q-54 -53 -86 -74q-180 -115 -362 -115h-264q-49 0 -77 25q9 -116 0 -181q-11 -77 -36 -114q-71 -104 -256 -174q-164 -62 -309 -62q-142 0 -232 66q-101 74 -101 211q0 123 100 319q34 66 41 66q51 0 51 -26
l-40 -105q-41 -108 -41 -177q0 -108 84 -162q72 -47 185 -47q112 0 251 54.5t219 130.5q3 15 3 36q0 75 -30.5 179.5t-71.5 167.5q14 58 54 162q9 23 19 0q52 -113 67 -141q48 -86 90 -86q16 0 32 14q122 130 230 223q150 129 296 129q105 0 176 -64.5t71 -168.5zM1798 236
q0 62 -61 112q-58 47 -121 47q-148 0 -398 -257h229q140 0 254 41q97 35 97 57z" />
    <glyph glyph-name="u0637" unicode="&#x637;" horiz-adv-x="1130" arabic-form="isolated" 
d="M1128 276q0 -25 -56 -82q-47 -48 -93 -79q-181 -122 -487 -122h-146q-63 0 -214 162q173 -17 211 -14q-7 742 -73 941l98 119q108 -236 105 -241q-3 -3 -70 14q24 -191 30 -737q40 49 153 143q155 129 296 129q99 0 172.5 -67.5t73.5 -165.5zM1009 236q0 62 -61 112
q-57 47 -120 47q-96 0 -236 -106q-41 -31 -172 -151h238q140 0 254 41q97 35 97 57z" />
    <glyph glyph-name="u0638" unicode="&#x638;" horiz-adv-x="1130" arabic-form="isolated" 
d="M878 868l-102 -108l-116 99l109 113zM1128 276q0 -25 -56 -82q-47 -48 -93 -79q-181 -122 -487 -122h-146q-63 0 -214 162q173 -17 211 -14q-7 742 -73 941l98 119q108 -236 105 -241q-3 -3 -70 14q24 -191 30 -737q40 49 153 143q155 129 296 129q99 0 172.5 -67.5
t73.5 -165.5zM1009 236q0 62 -61 112q-57 47 -120 47q-96 0 -236 -106q-41 -31 -172 -151h238q140 0 254 41q97 35 97 57z" />
    <glyph glyph-name="u0639" unicode="&#x639;" horiz-adv-x="869" arabic-form="isolated" 
d="M916 -411q-59 -82 -70 -84q-88 -25 -257 -25q-180 0 -306 75q-152 90 -152 258q0 237 279 418q-47 21 -92 70q-65 71 -65 153q0 57 72 150q90 116 208 116q32 0 81 -24q66 -32 110 -88q8 -10 6 -14q-2 -3 -13 0q-54 14 -122 14q-79 0 -172 -36q-82 -32 -82 -47
q0 -52 53 -116q68 -83 132 -83q12 0 142 39l184 55q11 3 13 0q-1 -4 -4 -12q-29 -68 -64 -134q-215 -42 -319 -103q-215 -126 -215 -296q0 -151 148 -223q113 -55 282 -55q2 0 121 6q67 3 113 4q-2 -6 -11 -18z" />
    <glyph glyph-name="u063A" unicode="&#x63a;" horiz-adv-x="869" arabic-form="isolated" 
d="M587 1041l-101 -107l-116 99l108 112zM916 -411q-59 -82 -70 -84q-88 -25 -257 -25q-180 0 -306 75q-152 90 -152 258q0 237 279 418q-47 21 -92 70q-65 71 -65 153q0 57 72 150q90 116 208 116q32 0 81 -24q66 -32 110 -88q8 -10 6 -14q-2 -3 -13 0q-54 14 -122 14
q-79 0 -172 -36q-82 -32 -82 -47q0 -52 53 -116q68 -83 132 -83q12 0 142 39l184 55q11 3 13 0q-1 -4 -4 -12q-29 -68 -64 -134q-215 -42 -319 -103q-215 -126 -215 -296q0 -151 148 -223q113 -55 282 -55q2 0 121 6q67 3 113 4q-2 -6 -11 -18z" />
    <glyph glyph-name="u0641" unicode="&#x641;" horiz-adv-x="1343" arabic-form="isolated" 
d="M1198 1049l-100 -107l-117 100l108 111zM1341 382q0 -112 -24 -204q-19 -73 -34 -81q-202 -105 -696 -105q-456 0 -456 265q0 74 48 179q44 96 60 96q9 0 25 -9.5t16 -17.5q0 13 -3 14q-6 0 -25 -64q-28 -94 -28 -124q0 -200 397 -200h196q85 0 198 18q145 23 222 64
q12 7 20 54q4 25 4 50q0 15 -2 28q-74 -38 -169 -38q-89 0 -146 39q-20 14 -20 118q0 125 66 227q58 90 108 90q65 0 137 -76q106 -111 106 -323zM1248 487q0 51 -59 100q-56 46 -108 46q-34 0 -54 -52q-15 -39 -15 -80q0 -58 104 -58q27 0 74 12q58 15 58 32z" />
    <glyph glyph-name="u0642" unicode="&#x642;" horiz-adv-x="1120" arabic-form="isolated" 
d="M1074 748l-98 -102l-106 96l103 103zM853 739l-99 -101l-106 96l103 102zM1114 69q0 -256 -38 -307q-50 -68 -191 -155q-205 -127 -406 -127q-148 0 -242 68q-106 76 -106 219q0 85 58 241q55 147 75 147q11 0 33 -13t22 -22q0 19 -4 20q-8 0 -35 -101q-39 -146 -39 -189
q0 -211 258 -211q152 0 316 81q145 72 210 156q4 4 8 56q4 60 -2 101q-64 -39 -159 -39q-104 0 -155 40q-21 17 -21 118q0 124 67 227q59 90 108 90q64 0 136 -76q107 -112 107 -324zM1012 178q0 51 -53 96.5t-105 45.5q-33 0 -53 -51q-16 -40 -16 -80q0 -56 119 -56
q26 0 62 11q46 14 46 34z" />
    <glyph glyph-name="u0643" unicode="&#x643;" horiz-adv-x="1544" arabic-form="isolated" 
d="M1510 1037q-363 -168 -574 -319q60 -34 109 -64q93 -57 158 -129q82 -91 82 -179q0 -130 -20 -164q-37 -63 -127 -107q-153 -75 -414 -75h-163q-430 0 -430 257q0 77 48 186q43 98 59 98q4 0 23.5 -12.5t19.5 -15.5q0 13 -3 14q-6 0 -25 -64q-29 -95 -29 -127
q0 -197 349 -197l16 1t33 1q140 2 309 13l53 4q61 11 133 40q102 41 102 78q0 92 -153 216q-45 36 -131 87q-66 39 -66 49q0 30 7 97q8 80 14 84q266 197 665 393q20 10 29 10q7 0 7 -5q0 -6 -81 -170z" />
    <glyph glyph-name="u0644" unicode="&#x644;" horiz-adv-x="1053" arabic-form="isolated" 
d="M1048 965q-18 1 -62 14l5 -157l17 -677l-1 -254q0 -25 -35 -107q-32 -76 -46 -93q-35 -44 -148 -97q-149 -70 -296 -70t-239 56q-112 68 -112 206q0 80 41 197q37 105 50 105q8 0 28 -9.5t20 -14.5q0 15 -2 16q-5 0 -20 -75q-23 -109 -23 -147q0 -93 94 -144
q77 -42 177 -42q126 0 223 37q204 78 203 124l-12 578q-5 259 -47 579q-15 115 -15 102q32 41 99 121q5 -15 59 -139q45 -104 42 -109z" />
    <glyph glyph-name="u0645" unicode="&#x645;" horiz-adv-x="759" arabic-form="isolated" 
d="M758 320q0 -22 -21.5 -86.5t-34.5 -88.5q-7 -13 -65 -13q13 0 -36 1h-36q-13 0 -44 -3q-83 -8 -183 -37q-111 -32 -111 -59q0 25 1 26q4 -21 12 -150q13 -211 13 -264q0 -25 -1 -45q-1 -23 -34 -62.5t-57 -53.5q-2 167 -6 308q-3 112 -24 205q17 67 37 140q11 19 68 47
l76 38q-34 77 -34 148q0 67 40 122q43 61 108 61q99 0 195 -60q34 -21 83 -79q54 -64 54 -95zM658 265q-74 149 -249 149q-41 0 -41 -40q0 -97 18 -129q144 22 272 20z" />
    <glyph glyph-name="u0646" unicode="&#x646;" horiz-adv-x="1078" arabic-form="isolated" 
d="M765 546l-101 -107l-117 100l109 112zM1068 -165q-2 -15 -20 -68q-19 -56 -25 -62q-217 -213 -559 -213q-146 0 -234 65q-99 74 -99 215q0 80 45 196q14 36 49 105q44 86 54 86t29.5 -13.5t19.5 -22.5q0 20 -4 20q-9 0 -39 -101q-43 -148 -43 -193q0 -206 269 -206
q127 0 258 42q153 49 220 133q7 9 7 54q0 136 -84 318q3 8 31 71q31 69 38 91q8 25 18 0q77 -189 77 -387q0 -65 -8 -130z" />
    <glyph glyph-name="u0647" unicode="&#x647;" horiz-adv-x="599" arabic-form="isolated" 
d="M598 244q0 -29 -26.5 -94t-47.5 -87q-57 -62 -212 -62q-80 0 -129 42q-52 44 -52 122q0 67 57 200q14 32 105 242q305 -136 305 -363zM511 196q0 127 -204 242q-80 -167 -80 -218q0 -36 40 -62q35 -24 73 -24q32 0 96 18q75 21 75 44z" />
    <glyph glyph-name="u0648" unicode="&#x648;" horiz-adv-x="634" arabic-form="isolated" 
d="M633 114q0 -174 -80 -334q-41 -82 -144 -204q-71 -84 -93 -84q-97 0 -198 56q-24 13 -25 18q0 6 23 15q138 53 250 152q159 140 183 279q-51 -10 -152 -10q-36 0 -87 12q-63 15 -76 34q-19 28 -15 135q4 115 84 214q69 86 117 86q55 0 121 -77q92 -108 92 -292zM539 165
q0 58 -43 113q-45 60 -101 60q-32 0 -57 -56q-21 -48 -21 -85q0 -58 95 -58q81 0 127 26z" />
    <glyph glyph-name="u0649" unicode="&#x649;" horiz-adv-x="1296" arabic-form="isolated" 
d="M1294 603q-47 -152 -52 -152q-131 0 -165 -14q-55 -23 -139 -118q-78 -89 -78 -114q0 -43 127 -80q112 -32 137 -45q68 -34 68 -92q0 -21 -22.5 -108t-31.5 -95q-33 -27 -224 -93q-251 -87 -428 -87q-145 0 -243 67q-112 77 -112 216q0 90 57 218q14 32 52 100
q46 82 56 82q12 0 33.5 -11t21.5 -21q0 22 -5 22q-12 0 -50 -109q-55 -158 -55 -201q0 -113 87 -169q73 -48 192 -48q209 0 474 104q112 44 112 68t-103 56q-139 43 -159 53q-76 38 -76 82q0 55 55 176q154 340 377 340q102 0 94 -27z" />
    <glyph glyph-name="u064A" unicode="&#x64a;" horiz-adv-x="1296" arabic-form="isolated" 
d="M1294 603q-47 -152 -52 -152q-131 0 -165 -14q-55 -23 -139 -118q-78 -89 -78 -114q0 -43 127 -80q112 -32 137 -45q68 -34 68 -92q0 -21 -22.5 -108t-31.5 -95q-33 -27 -224 -93q-251 -87 -428 -87q-145 0 -243 67q-112 77 -112 216q0 90 57 218q14 32 52 100
q46 82 56 82q12 0 33.5 -11t21.5 -21q0 22 -5 22q-12 0 -50 -109q-55 -158 -55 -201q0 -113 87 -169q73 -48 192 -48q209 0 474 104q112 44 112 68t-103 56q-139 43 -159 53q-76 38 -76 82q0 55 55 176q154 340 377 340q102 0 94 -27z" />
    <glyph glyph-name="u067E" unicode="&#x67e;" horiz-adv-x="1309" arabic-form="isolated" 
d="M1308 294q0 -29 -28.5 -99t-48.5 -86q-50 -38 -272 -79q-213 -39 -372 -39q-456 0 -456 259q0 78 47 185q43 97 59 97q7 0 25 -11t18 -17q0 13 -3 14q-6 0 -25 -64q-28 -93 -28 -124q0 -199 399 -199q147 0 311 24q287 42 287 81q0 35 -73 160l76 134q10 17 13 1
q71 -172 71 -237zM896 -228l-97 -90l-95 96l97 90zM681 -226l-97 -91l-95 96l97 90zM788 -407l-96 -89l-96 95l98 90z" />
    <glyph glyph-name="u0686" unicode="&#x686;" horiz-adv-x="947" arabic-form="isolated" 
d="M792 -5l-97 -89l-95 95l96 90zM1004 -399q-57 -77 -66 -81q-84 -40 -278 -40q-207 0 -350 77q-179 96 -179 286q0 349 474 539q-204 68 -288 68q-46 0 -97 -98l-51 12q46 112 69 153q48 84 92 84q48 0 212.5 -53.5t250.5 -53.5q81 0 124 5q17 2 21 0q5 -2 2 -11
q-1 -3 -4 -13q-12 -36 -52 -111q-143 -10 -286 -75q-146 -66 -243 -168q-87 -92 -87 -215q0 -172 173 -249q126 -56 322 -56q114 0 214 18q33 6 37 3q3 -3 -10 -21zM577 -3l-97 -90l-96 96l98 90zM684 -182l-97 -91l-95 95l97 90z" />
    <glyph glyph-name="u0698" unicode="&#x698;" horiz-adv-x="620" arabic-form="isolated" 
d="M523 904l-97 -90l-95 95l97 90zM631 723l-98 -90l-95 96l97 90zM416 725l-97 -90l-96 96l97 90zM571 109q0 -147 -91 -320q-35 -67 -95 -141q-76 -94 -118 -94q-74 0 -176 38q-19 7 -20 12q3 5 20 13q122 55 251 178q150 142 150 239q0 79 -122 223q0 8 54 157q6 16 15 4
q41 -56 82 -143q50 -107 50 -166z" />
    <glyph glyph-name="u06AF" unicode="&#x6af;" horiz-adv-x="1521" arabic-form="isolated" 
d="M1521 1199l-47 -88q-171 -48 -549 -206q6 27 18 86q339 145 578 208zM1568 1010q-61 -111 -74 -115q-201 -63 -551 -190l190 -110q160 -113 160 -249q0 -131 -20 -165q-106 -181 -549 -181h-163q-430 0 -430 257q0 79 49 188q43 96 57 96q7 0 25.5 -11.5t18.5 -16.5
q0 13 -3 13q-6 0 -25 -64q-29 -95 -29 -126q0 -195 347 -195q-10 0 25 1h26q246 -5 362 16q69 12 140 41q104 42 104 85q0 29 -43 94q-70 105 -262 200q-49 24 -48 37q6 91 21 181q237 124 647 240q25 7 33 7q5 0 5 -4q0 -5 -13 -29z" />
    <glyph glyph-name="uFB57" unicode="&#x67e;" horiz-adv-x="1390" arabic-form="final" 
d="M1416 1h-60q-170 0 -176 162q-103 -79 -283 -128q-162 -44 -310 -44q-456 0 -456 257q0 79 48 187q43 97 59 97q8 0 25.5 -11t17.5 -17q0 13 -3 14q-6 0 -25 -64q-29 -95 -29 -127q0 -196 399 -196q118 0 318 43q96 21 181 69q50 29 79 89q23 48 26 52q7 0 29 -7t22 -11
q0 30 -9.5 -39.5t-9.5 -78.5q0 -108 107 -108h50v-139zM896 -228l-97 -90l-95 96l97 90zM681 -226l-97 -91l-95 96l97 90zM788 -407l-96 -89l-96 95l98 90z" />
    <glyph glyph-name="uFB58" unicode="&#x67e;" horiz-adv-x="395" arabic-form="initial" 
d="M335 278q0 -106 -84.5 -191.5t-190.5 -85.5h-94v139h69q64 0 126 20q85 28 85 81q0 6 -38 66t-38 64q0 6 60 159q5 13 10 5q95 -143 95 -257zM412 -233l-96 -90l-96 95l97 90zM197 -232l-96 -89l-95 95l96 90zM305 -411l-97 -91l-95 95l96 90z" />
    <glyph glyph-name="uFB59" unicode="&#x67e;" horiz-adv-x="473" arabic-form="medial" 
d="M498 1h-76q-117 0 -181 106q-77 -106 -208 -106h-59v139h46q190 0 190 205q13 8 35 8q21 0 30 -8q0 -117 27 -155q35 -50 155 -50h41v-139zM438 -228l-96 -90l-96 96l98 90zM223 -226l-96 -91l-95 96l96 90zM331 -407l-97 -89l-95 95l97 90z" />
    <glyph glyph-name="uFB7B" unicode="&#x686;" horiz-adv-x="1048" arabic-form="final" 
d="M766 -15l-97 -90l-96 96l98 90zM1074 1h-73q-144 0 -207 114q-33 60 -33 231q-264 -68 -404 -225q-88 -99 -88 -215q0 -304 494 -304q129 0 280 26q31 5 35 1q4 -3 -9 -21q-57 -76 -65 -80q-100 -48 -344 -48q-207 0 -350 77q-179 96 -179 286q0 344 474 539
q-204 68 -288 68q-46 0 -97 -98l-51 12q46 112 69 153q48 84 92 84q51 0 218.5 -53t253.5 -53q106 0 207 23q18 4 21 1q2 -3 -3 -18q-13 -38 -51 -125q-55 -3 -146 -16q0 -220 188 -220h56v-139zM551 -13l-97 -90l-96 96l98 89zM658 -194l-97 -89l-95 95l97 90z" />
    <glyph glyph-name="uFB7C" unicode="&#x686;" horiz-adv-x="841" arabic-form="initial" 
d="M830 273q-6 -10 -55 -103q-43 6 -81 6q-93 0 -168 -32q-40 -18 -146 -62q-208 -81 -319 -81h-87v139h74q81 0 237 35q169 38 254 83q-60 31 -217 136q-129 86 -141 86q-27 0 -96 -97l-41 27q92 211 156 211q51 0 157 -83q163 -127 208 -155q135 -83 254 -83q17 0 21 -3
t-10 -24zM573 -238l-96 -91l-95 96l96 90zM358 -236l-96 -91l-95 95l96 91zM466 -417l-96 -90l-96 96l97 90z" />
    <glyph glyph-name="uFB7D" unicode="&#x686;" horiz-adv-x="1084" arabic-form="medial" 
d="M1111 1h-45q-191 0 -264 96q-46 60 -46 245q-6 -3 -248 -175q-233 -166 -411 -166h-123v139h112q215 0 531 238q-67 9 -236 75q-159 62 -178 62q-30 0 -64.5 -47.5t-33.5 -47.5l-50 12q95 228 160 228q28 0 232.5 -80.5t312.5 -80.5q151 0 245 23q19 5 21 2q1 -5 -3 -18
q-14 -42 -58 -118q-85 -7 -149 -24q0 -224 256 -224h39v-139zM802 -233l-96 -90l-96 95l97 90zM587 -232l-96 -89l-96 95l97 90zM695 -411l-97 -91l-95 95l97 90z" />
    <glyph glyph-name="uFB8B" unicode="&#x698;" horiz-adv-x="696" arabic-form="final" 
d="M541 869l-97 -90l-96 95l97 90zM648 689l-97 -90l-95 95l97 90zM433 691l-97 -91l-95 96l97 90zM722 1h-31q-73 0 -108 41q-11 -120 -103 -297q-38 -73 -94 -144q-76 -96 -118 -96q-57 0 -179 45q-19 7 -20 12q0 5 20 14q139 63 272 191q146 141 146 241q0 70 -131 224
q0 -20 54 154q5 17 15 4q29 -48 87 -139q71 -111 139 -111h51v-139z" />
    <glyph glyph-name="uFEDA" unicode="&#x6a9;" horiz-adv-x="1705" arabic-form="final" 
d="M1731 1h-37q-92 0 -190 105l-216 232q8 -37 2 -106q-5 -60 -13 -73q-95 -159 -553 -159h-163q-430 0 -430 257q0 81 49 189q43 95 58 95q9 0 26 -10.5t17 -18.5q0 13 -3 14q-6 0 -25 -64q-29 -94 -29 -126q0 -195 348 -195q-8 0 25 1h25q251 -3 368 16q76 12 145 39
q106 41 106 89q0 96 -165 208q-52 35 -145 92q-41 25 -40 40q6 99 18 180q239 194 647 392q23 11 28 12q4 -1 4 -5q0 -6 -8 -31q-16 -49 -43 -124q-391 -200 -577 -341q131 -61 315 -218q16 -14 237 -232q120 -119 185 -119h34v-139z" />
    <glyph glyph-name="uFEDB" unicode="&#x6a9;" horiz-adv-x="725" arabic-form="initial" 
d="M756 1178q-18 -39 -70 -141q-358 -177 -564 -322q30 -17 106 -63q89 -55 154 -128q79 -90 79 -178q0 -141 -17 -171q-99 -174 -425 -174h-45v139h52q192 0 308 69q62 37 62 67q0 103 -153 216q-39 29 -133 86q-64 39 -64 50q0 30 7 97q8 80 14 84q275 203 665 393
q23 11 31 11q6 0 6 -5q-2 -7 -11 -26z" />
    <glyph glyph-name="uFEDC" unicode="&#x6a9;" horiz-adv-x="891" arabic-form="medial" 
d="M917 1h-37q-93 0 -191 105q-59 64 -215 232q9 -40 5 -106q-2 -31 -13 -75q-39 -53 -121 -95q-119 -61 -281 -61h-90v139h101q157 0 263 50q92 43 92 91q0 89 -174 213q-47 33 -143 92q-44 27 -43 41q7 84 24 179q345 242 647 392q24 12 29 12q4 -1 4 -5q-2 -7 -9 -31
q-20 -67 -43 -124q-358 -169 -582 -332q102 -64 318 -226l237 -233q121 -119 188 -119h34v-139z" />
    <glyph glyph-name="uFB93" unicode="&#x6af;" horiz-adv-x="1712" arabic-form="final" 
d="M1586 1205l-49 -93q-80 -22 -318 -107q-223 -79 -280 -103q5 27 19 91q432 164 628 212zM1737 1h-37q-93 0 -191 105l-216 232q0 -152 -16 -179q-95 -159 -553 -159h-163q-430 0 -430 257q0 77 48 186q43 98 59 98q6 0 24.5 -11.5t18.5 -16.5q0 13 -3 14q-6 0 -25 -64
q-29 -95 -29 -127q0 -195 349 -195q-9 0 24 1h25q251 -3 368 16q76 12 145 39q106 41 106 89q0 100 -165 208q-54 35 -144 86q-43 24 -41 37q5 88 19 181q336 156 714 238q38 8 38 2q0 -17 -62 -98q-33 -43 -39 -45q-484 -130 -607 -190l127 -76q139 -84 196 -137l240 -234
q121 -118 186 -118h34v-139z" />
    <glyph glyph-name="uFB94" unicode="&#x6af;" horiz-adv-x="694" arabic-form="initial" 
d="M689 1199l-47 -88q-171 -48 -548 -206q4 27 17 86q319 137 578 208zM735 1010q-64 -113 -73 -115q-229 -74 -551 -190l190 -110q160 -113 160 -249q0 -141 -17 -171q-99 -174 -425 -174h-45v139h52q197 0 307 69q63 40 63 75q0 30 -43 95q-67 101 -261 199q-49 25 -48 37
q5 94 20 181q244 122 647 241q24 7 32 7q6 0 6 -4q0 -5 -14 -30z" />
    <glyph glyph-name="uFB95" unicode="&#x6af;" horiz-adv-x="891" arabic-form="medial" 
d="M765 1205l-48 -93q-80 -22 -318 -107q-223 -79 -280 -103q4 27 18 91q434 164 628 212zM917 1h-37q-94 0 -192 105l-216 232q0 -154 -14 -179q-27 -48 -134 -98q-128 -60 -268 -60h-82v139h101q124 0 239 55q106 51 106 91q0 100 -164 208q-56 37 -145 86q-42 23 -41 37
q5 92 20 181q349 155 713 239q38 9 38 2q0 -20 -62 -99q-34 -44 -39 -45q-435 -116 -607 -188l128 -77q143 -86 196 -138q66 -65 238 -233q122 -119 188 -119h34v-139z" />
    <glyph glyph-name="uFE94" unicode="&#x6c0;" horiz-adv-x="773" arabic-form="final" 
d="M799 1h-33q-90 0 -140 62q-34 42 -67 146q-43 -50 -94 -100q-77 -4 -188 17q-146 27 -146 81q0 9 28.5 93t32.5 88q67 68 291 151l-23 133q10 19 60 129q9 20 12 1q2 -22 64 -339q27 -139 45 -190q47 -133 119 -133h39v-139zM548 244q-9 45 -45 203l-119 -47
q-134 -59 -134 -100q0 -7 8 -12q63 -42 290 -44zM598 1019q1 -11 -11 -47.5t-18 -36.5q-41 -8 -83 -15q-101 -28 -214 -97q1 33 5 66q30 23 96 55q-80 38 -80 92q0 43 61 99.5t105 56.5q59 0 115 -55l-59 -57q-38 32 -67 32q-22 0 -52 -16q-34 -17 -34 -37q0 -21 39 -49
q36 -26 59 -26q16 0 66 16q55 17 72 19z" />
    <glyph glyph-name="uFEF2" unicode="&#x6cc;" horiz-adv-x="1165" arabic-form="final" 
d="M1191 1h-168q-82 0 -155 -46q-22 -14 -22 -21t22 -14q37 -11 132 -41q100 -33 100 -61q0 -41 -9 -108q-11 -86 -29 -95q-58 -31 -204 -72q-200 -56 -359 -56q-147 0 -245 56q-120 69 -120 205q0 120 48 236q14 34 45 92q40 76 50 76t32.5 -11.5t22.5 -19.5q0 21 -5 21
q-10 0 -43 -103q-49 -149 -49 -192q0 -217 298 -217q273 0 488 84q7 3 8 12q0 8 -5 11q-21 14 -154 55q-108 34 -108 60q0 25 21 106q22 85 35 96q34 29 93 55q72 31 133 31h147v-139z" />
    <glyph glyph-name="uFEF3" unicode="&#x6cc;" horiz-adv-x="433" arabic-form="initial" 
d="M335 278q0 -106 -84.5 -191.5t-190.5 -85.5h-94v139h69q64 0 126 20q85 28 85 81q0 6 -38 66t-38 64q0 6 60 159q5 13 10 5q95 -143 95 -257zM442 -253l-98 -102l-107 96l104 103zM220 -262l-99 -101l-105 95l103 103z" />
    <glyph glyph-name="uFEF4" unicode="&#x6cc;" horiz-adv-x="473" arabic-form="medial" 
d="M498 1h-76q-117 0 -181 106q-77 -106 -208 -106h-59v139h46q190 0 190 205q13 8 35 8q21 0 30 -8q0 -117 27 -155q35 -50 155 -50h41v-139zM442 -253l-98 -102l-107 96l104 103zM220 -262l-99 -101l-105 95l103 103z" />
    <glyph glyph-name="Hcircumflex" unicode="&#x622;" horiz-adv-x="459" arabic-form="final" 
d="M387 1363q0 -23 -68 -49q-58 -22 -90 -24q-47 -3 -94 -4q-8 -14 -18 -49q-7 -24 -16 -24q-41 0 -41 13q0 35 11 86q15 67 38 67q14 0 41.5 -6.5t41.5 -6.5q90 0 192 53q3 -11 3 -56zM484 1h-60q-123 0 -164 146q-26 93 -28 310q0 80 -5 297q-6 140 -36 265q-17 70 -17 60
q0 12 90 111q12 13 16 -5q48 -214 48 -553v-268q0 -102 14 -145q26 -79 103 -79h39v-139z" />
    <glyph glyph-name="uFE84" unicode="&#x623;" horiz-adv-x="467" arabic-form="final" 
d="M353 1374q1 -8 -9.5 -39t-14.5 -32l-70 -12q-85 -23 -180 -81q1 27 3 55q25 18 82 46q-67 31 -67 77q0 36 51.5 83.5t87.5 47.5q48 0 96 -45l-50 -50q-28 28 -55 28q-18 0 -45 -14t-27 -30q0 -17 31.5 -40t49.5 -23q6 0 54 13.5t63 15.5zM493 1h-60q-124 0 -164 146
q-26 94 -28 310q0 80 -5 297q-6 141 -36 265q-18 74 -18 60q0 12 91 111q12 13 16 -5q47 -214 47 -553v-268q0 -102 14 -145q26 -79 104 -79h39v-139z" />
    <glyph glyph-name="uFE86" unicode="&#x624;" horiz-adv-x="694" arabic-form="final" 
d="M476 773q1 -11 -10.5 -47t-18.5 -37q-52 -10 -83 -15q-102 -28 -214 -97q1 33 5 66q27 21 96 54q-80 40 -80 93q0 42 61.5 99t104.5 57q58 0 115 -55l-59 -57q-38 33 -67 33q-22 0 -52 -16q-34 -18 -34 -37q0 -22 37 -49t61 -27q7 2 46 14q48 15 92 21zM720 1h-93
q-12 -98 -74 -221q-42 -83 -144 -204q-71 -84 -93 -84q-97 0 -198 56q-24 13 -25 18q0 6 23 15q138 53 250 152q159 140 181 269h-124q-147 0 -199 55q-10 10 -5 126q5 115 84 214q69 86 117 86q53 0 120 -72q93 -100 99 -271h81v-139zM551 144q0 60 -47 127q-51 73 -108 73
q-38 0 -62 -62q-19 -49 -19 -95q0 -24 69 -36q112 -20 167 -7z" />
    <glyph glyph-name="uFE88" unicode="&#x625;" horiz-adv-x="476" arabic-form="final" 
d="M502 1h-60q-124 0 -164 146q-27 98 -29 310q0 80 -4 297q-5 138 -36 265q-17 70 -17 60q0 15 90 111q11 12 15 -5q48 -216 48 -553v-268q0 -102 14 -145q26 -79 104 -79h39v-139zM485 -240q1 -8 -9 -39t-15 -32q-19 -3 -69 -13q-78 -18 -181 -81q1 27 4 56q25 17 81 46
q-66 31 -66 77q0 37 51.5 84t88.5 47q46 0 95 -46l-50 -49q-29 28 -56 28q-18 0 -43 -14q-29 -15 -29 -31q0 -18 33 -41q30 -22 50 -22q11 0 54 13q48 15 61 17z" />
    <glyph glyph-name="uFE8A" unicode="&#x626;" horiz-adv-x="1165" arabic-form="final" 
d="M1191 1h-168q-82 0 -155 -46q-22 -14 -22 -21t22 -14q37 -11 132 -41q100 -33 100 -61q0 -41 -9 -108q-11 -86 -29 -95q-58 -31 -204 -72q-200 -56 -359 -56q-147 0 -245 56q-120 69 -120 205q0 120 48 236q14 34 45 92q40 76 50 76t32.5 -11.5t22.5 -19.5q0 21 -5 21
q-10 0 -43 -103q-49 -149 -49 -192q0 -217 298 -217q273 0 488 84q7 3 8 12q0 8 -5 11q-21 14 -154 55q-108 34 -108 60q0 25 21 106q22 85 35 96q34 29 93 55q72 31 133 31h147v-139zM520 441q1 -11 -11 -47.5t-17 -36.5q-23 -3 -84 -15q-90 -21 -213 -97q0 32 3 66
q31 23 97 55q-79 39 -79 92q0 42 61.5 98.5t104.5 56.5q58 0 114 -54l-59 -57q-36 32 -67 32q-23 0 -52 -15q-34 -17 -34 -37q0 -22 39 -49q36 -26 60 -26q55 15 137 34z" />
    <glyph glyph-name="uFE8B" unicode="&#x626;" horiz-adv-x="338" arabic-form="initial" 
d="M337 794q1 -11 -10.5 -47.5t-18.5 -37.5q-23 -3 -82 -15q-91 -21 -215 -96q2 32 5 66q31 23 97 55q-80 37 -80 92q0 42 61 98.5t104 56.5q59 0 116 -55l-60 -56q-37 32 -67 32q-22 0 -52 -16q-34 -18 -34 -37q0 -21 39 -49q36 -26 59 -26q16 0 66 16q55 17 72 19z
M335 278q0 -106 -84.5 -191.5t-190.5 -85.5h-94v139h69q64 0 126 20q85 28 85 81q0 6 -38 66t-38 64q0 6 60 159q5 13 10 5q95 -143 95 -257z" />
    <glyph glyph-name="uFE8C" unicode="&#x626;" horiz-adv-x="473" arabic-form="medial" 
d="M403 724q1 -10 -11 -46.5t-18 -37.5q-23 -3 -83 -15q-92 -21 -214 -96q2 32 5 66q23 18 97 54q-80 39 -80 93q0 43 60.5 98.5t104.5 55.5q59 0 116 -54l-60 -57q-36 33 -67 33q-22 0 -51 -16q-34 -18 -34 -37q0 -22 37 -48.5t60 -26.5q13 0 64 15q56 17 74 19zM498 1h-76
q-117 0 -181 106q-77 -106 -208 -106h-59v139h46q190 0 190 205q13 8 35 8q21 0 30 -8q0 -117 27 -155q35 -50 155 -50h41v-139z" />
    <glyph glyph-name="uFE8E" unicode="&#x627;" horiz-adv-x="416" arabic-form="final" 
d="M441 1h-59q-124 0 -165 146q-25 90 -28 310q0 80 -6 297q-6 142 -35 265q-17 72 -17 60q0 16 90 111q11 12 15 -5q48 -205 48 -553v-268q0 -100 15 -145q26 -79 103 -79h39v-139z" />
    <glyph glyph-name="uFE90" unicode="&#x628;" horiz-adv-x="1390" arabic-form="final" 
d="M1416 1h-60q-170 0 -176 162q-103 -79 -283 -128q-162 -44 -310 -44q-456 0 -456 257q0 79 48 187q43 97 59 97q8 0 25.5 -11t17.5 -17q0 13 -3 14q-6 0 -25 -64q-29 -95 -29 -127q0 -196 399 -196q118 0 318 43q96 21 181 69q50 29 79 89q23 48 26 52q7 0 29 -7t22 -11
q0 30 -9.5 -39.5t-9.5 -78.5q0 -108 107 -108h50v-139zM765 -259l-101 -108l-117 100l109 112z" />
    <glyph glyph-name="uFE91" unicode="&#x628;" horiz-adv-x="338" arabic-form="initial" 
d="M335 278q0 -106 -84.5 -191.5t-190.5 -85.5h-94v139h69q64 0 126 20q85 28 85 81q0 6 -38 66t-38 64q0 6 60 159q5 13 10 5q95 -143 95 -257zM315 -255l-102 -107l-116 99l109 112z" />
    <glyph glyph-name="uFE92" unicode="&#x628;" horiz-adv-x="473" arabic-form="medial" 
d="M498 1h-76q-117 0 -181 106q-77 -106 -208 -106h-59v139h46q190 0 190 205q13 8 35 8q21 0 30 -8q0 -117 27 -155q35 -50 155 -50h41v-139zM362 -255l-101 -107l-117 99l109 112z" />
    <glyph glyph-name="uFE96" unicode="&#x62a;" horiz-adv-x="1390" arabic-form="final" 
d="M880 718l-99 -102l-106 95l103 104zM658 708l-99 -100l-106 95l104 103zM1416 1h-60q-170 0 -176 162q-103 -79 -283 -128q-162 -44 -310 -44q-456 0 -456 257q0 79 48 187q43 97 59 97q8 0 25.5 -11t17.5 -17q0 13 -3 14q-6 0 -25 -64q-29 -95 -29 -127q0 -196 399 -196
q118 0 318 43q96 21 181 69q50 29 79 89q23 48 26 52q7 0 29 -7t22 -11q0 30 -9.5 -39.5t-9.5 -78.5q0 -108 107 -108h50v-139z" />
    <glyph glyph-name="uFE97" unicode="&#x62a;" horiz-adv-x="403" arabic-form="initial" 
d="M446 822l-99 -101l-105 94l103 104zM224 813l-98 -102l-106 96l103 102zM335 278q0 -106 -84.5 -191.5t-190.5 -85.5h-94v139h69q64 0 126 20q85 28 85 81q0 6 -38 66t-38 64q0 6 60 159q5 13 10 5q95 -143 95 -257z" />
    <glyph glyph-name="uFE98" unicode="&#x62a;" horiz-adv-x="473" arabic-form="medial" 
d="M446 718l-99 -102l-105 95l103 104zM224 708l-98 -100l-106 95l103 103zM498 1h-76q-117 0 -181 106q-77 -106 -208 -106h-59v139h46q190 0 190 205q13 8 35 8q21 0 30 -8q0 -117 27 -155q35 -50 155 -50h41v-139z" />
    <glyph glyph-name="uFE9A" unicode="&#x62b;" horiz-adv-x="1390" arabic-form="final" 
d="M804 767l-97 -90l-95 95l96 90zM911 586l-96 -90l-95 96l96 90zM696 588l-96 -90l-95 96l96 89zM1416 1h-60q-170 0 -176 162q-103 -79 -283 -128q-162 -44 -310 -44q-456 0 -456 257q0 79 48 187q43 97 59 97q8 0 25.5 -11t17.5 -17q0 13 -3 14q-6 0 -25 -64
q-29 -95 -29 -127q0 -196 399 -196q118 0 318 43q96 21 181 69q50 29 79 89q23 48 26 52q7 0 29 -7t22 -11q0 30 -9.5 -39.5t-9.5 -78.5q0 -108 107 -108h50v-139z" />
    <glyph glyph-name="uFE9B" unicode="&#x62b;" horiz-adv-x="395" arabic-form="initial" 
d="M290 934l-97 -91l-96 95l98 91zM397 753l-97 -90l-95 96l97 89zM182 755l-97 -90l-95 95l97 90zM335 278q0 -106 -84.5 -191.5t-190.5 -85.5h-94v139h69q64 0 126 20q85 28 85 81q0 6 -38 66t-38 64q0 6 60 159q5 13 10 5q95 -143 95 -257z" />
    <glyph glyph-name="uFE9C" unicode="&#x62b;" horiz-adv-x="473" arabic-form="medial" 
d="M336 767l-97 -90l-95 95l97 90zM444 586l-98 -90l-95 96l97 90zM229 588l-98 -90l-95 96l97 89zM498 1h-76q-117 0 -181 106q-77 -106 -208 -106h-59v139h46q190 0 190 205q13 8 35 8q21 0 30 -8q0 -117 27 -155q35 -50 155 -50h41v-139z" />
    <glyph glyph-name="uFE9E" unicode="&#x62c;" horiz-adv-x="1048" arabic-form="final" 
d="M1074 1h-73q-144 0 -207 114q-33 60 -33 231q-264 -68 -404 -225q-88 -99 -88 -215q0 -304 494 -304q129 0 280 26q31 5 35 1q4 -3 -9 -21q-57 -76 -65 -80q-100 -48 -344 -48q-207 0 -350 77q-179 96 -179 286q0 344 474 539q-204 68 -288 68q-46 0 -97 -98l-51 12
q46 112 69 153q48 84 92 84q51 0 218.5 -53t253.5 -53q106 0 207 23q18 4 21 1q2 -3 -3 -18q-13 -38 -51 -125q-55 -3 -146 -16q0 -220 188 -220h56v-139zM679 -60l-102 -108l-116 100l109 112z" />
    <glyph glyph-name="uFE9F" unicode="&#x62c;" horiz-adv-x="841" arabic-form="initial" 
d="M830 273q-6 -10 -55 -103q-43 6 -81 6q-93 0 -168 -32q-40 -18 -146 -62q-208 -81 -319 -81h-87v139h74q81 0 237 35q169 38 254 83q-60 31 -217 136q-129 86 -141 86q-27 0 -96 -97l-41 27q92 211 156 211q51 0 157 -83q163 -127 208 -155q135 -83 254 -83q17 0 21 -3
t-10 -24zM479 -250l-101 -107l-116 99l108 112z" />
    <glyph glyph-name="uFEA0" unicode="&#x62c;" horiz-adv-x="1084" arabic-form="medial" 
d="M1111 1h-45q-191 0 -264 96q-46 60 -46 245q-6 -3 -248 -175q-233 -166 -411 -166h-123v139h112q215 0 531 238q-67 9 -236 75q-159 62 -178 62q-30 0 -64.5 -47.5t-33.5 -47.5l-50 12q95 228 160 228q28 0 232.5 -80.5t312.5 -80.5q151 0 245 23q19 5 21 2q1 -5 -3 -18
q-14 -42 -58 -118q-85 -7 -149 -24q0 -224 256 -224h39v-139zM705 -259l-102 -108l-116 100l109 112z" />
    <glyph glyph-name="uFEA2" unicode="&#x62d;" horiz-adv-x="1048" arabic-form="final" 
d="M1074 1h-73q-144 0 -207 114q-33 60 -33 231q-264 -68 -404 -225q-88 -99 -88 -215q0 -304 494 -304q129 0 280 26q31 5 35 1q4 -3 -9 -21q-57 -76 -65 -80q-100 -48 -344 -48q-207 0 -350 77q-179 96 -179 286q0 344 474 539q-204 68 -288 68q-46 0 -97 -98l-51 12
q46 112 69 153q48 84 92 84q51 0 218.5 -53t253.5 -53q106 0 207 23q18 4 21 1q2 -3 -3 -18q-13 -38 -51 -125q-55 -3 -146 -16q0 -220 188 -220h56v-139z" />
    <glyph glyph-name="uFEA3" unicode="&#x62d;" horiz-adv-x="841" arabic-form="initial" 
d="M830 273q-6 -10 -55 -103q-43 6 -81 6q-93 0 -168 -32q-40 -18 -146 -62q-208 -81 -319 -81h-87v139h74q81 0 237 35q169 38 254 83q-60 31 -217 136q-129 86 -141 86q-27 0 -96 -97l-41 27q92 211 156 211q51 0 157 -83q163 -127 208 -155q135 -83 254 -83q17 0 21 -3
t-10 -24z" />
    <glyph glyph-name="uFEA4" unicode="&#x62d;" horiz-adv-x="1084" arabic-form="medial" 
d="M1111 1h-45q-191 0 -264 96q-46 60 -46 245q-6 -3 -248 -175q-233 -166 -411 -166h-123v139h112q215 0 531 238q-67 9 -236 75q-159 62 -178 62q-30 0 -64.5 -47.5t-33.5 -47.5l-50 12q95 228 160 228q28 0 232.5 -80.5t312.5 -80.5q151 0 245 23q19 5 21 2q1 -5 -3 -18
q-14 -42 -58 -118q-85 -7 -149 -24q0 -224 256 -224h39v-139z" />
    <glyph glyph-name="uFEA6" unicode="&#x62e;" horiz-adv-x="1048" arabic-form="final" 
d="M765 923l-101 -107l-117 100l109 112zM1074 1h-73q-144 0 -207 114q-33 60 -33 231q-264 -68 -404 -225q-88 -99 -88 -215q0 -304 494 -304q129 0 280 26q31 5 35 1q4 -3 -9 -21q-57 -76 -65 -80q-100 -48 -344 -48q-207 0 -350 77q-179 96 -179 286q0 344 474 539
q-204 68 -288 68q-46 0 -97 -98l-51 12q46 112 69 153q48 84 92 84q51 0 218.5 -53t253.5 -53q106 0 207 23q18 4 21 1q2 -3 -3 -18q-13 -38 -51 -125q-55 -3 -146 -16q0 -220 188 -220h56v-139z" />
    <glyph glyph-name="uFEA7" unicode="&#x62e;" horiz-adv-x="841" arabic-form="initial" 
d="M470 928l-100 -107l-117 100l108 111zM830 273q-6 -10 -55 -103q-43 6 -81 6q-93 0 -168 -32q-40 -18 -146 -62q-208 -81 -319 -81h-87v139h74q81 0 237 35q169 38 254 83q-60 31 -217 136q-129 86 -141 86q-27 0 -96 -97l-41 27q92 211 156 211q51 0 157 -83
q163 -127 208 -155q135 -83 254 -83q17 0 21 -3t-10 -24z" />
    <glyph glyph-name="uFEA8" unicode="&#x62e;" horiz-adv-x="1084" arabic-form="medial" 
d="M687 936l-101 -107l-116 100l108 112zM1111 1h-45q-191 0 -264 96q-46 60 -46 245q-6 -3 -248 -175q-233 -166 -411 -166h-123v139h112q215 0 531 238q-67 9 -236 75q-159 62 -178 62q-30 0 -64.5 -47.5t-33.5 -47.5l-50 12q95 228 160 228q28 0 232.5 -80.5t312.5 -80.5
q151 0 245 23q19 5 21 2q1 -5 -3 -18q-14 -42 -58 -118q-85 -7 -149 -24q0 -224 256 -224h39v-139z" />
    <glyph glyph-name="uFEAA" unicode="&#x62f;" horiz-adv-x="780" arabic-form="final" 
d="M806 1h-47q-67 0 -116 80q-32 52 -43 106q-33 -112 -51 -123q-50 -30 -143 -52q-88 -20 -152 -20q-96 0 -119 15q-3 26 -3 55q0 73 18 155q2 7 20 7t20 -7q4 -53 14 -65q17 -20 90 -20q55 0 159 31q111 33 127 63l-140 441q4 28 66 147q9 17 13 -2q17 -71 85 -339
q43 -171 60 -214q46 -119 108 -119h34v-139z" />
    <glyph glyph-name="uFEAC" unicode="&#x630;" horiz-adv-x="780" arabic-form="final" 
d="M553 1119l-102 -108l-116 100l109 112zM806 1h-47q-67 0 -116 80q-32 52 -43 106q-33 -112 -51 -123q-50 -30 -143 -52q-88 -20 -152 -20q-96 0 -119 15q-3 26 -3 55q0 73 18 155q2 7 20 7t20 -7q4 -53 14 -65q17 -20 90 -20q55 0 159 31q111 33 127 63l-140 441
q4 28 66 147q9 17 13 -2q17 -71 85 -339q43 -171 60 -214q46 -119 108 -119h34v-139z" />
    <glyph glyph-name="uFEAE" unicode="&#x631;" horiz-adv-x="696" arabic-form="final" 
d="M722 1h-31q-73 0 -108 41q-11 -120 -103 -297q-38 -73 -94 -144q-76 -96 -118 -96q-57 0 -179 45q-19 7 -20 12q0 5 20 14q139 63 272 191q146 141 146 241q0 70 -131 224q0 -20 54 154q5 17 15 4q29 -48 87 -139q71 -111 139 -111h51v-139z" />
    <glyph glyph-name="uFEB0" unicode="&#x632;" horiz-adv-x="696" arabic-form="final" 
d="M561 711l-101 -107l-116 100l108 111zM732 1h-33q-72 0 -108 41q-9 -116 -102 -297q-34 -67 -95 -144q-75 -96 -118 -96q-54 0 -178 45q-20 7 -21 12q3 6 21 14q139 64 272 191q146 140 146 241q0 70 -132 224q0 -9 54 154q6 19 16 4q24 -39 87 -139q70 -111 139 -111h52
v-139z" />
    <glyph glyph-name="uFEB2" unicode="&#x633;" horiz-adv-x="1798" arabic-form="final" 
d="M1824 1h-42q-100 0 -154 99q-66 -99 -171 -99q-49 0 -91 29.5t-54 76.5q-57 -106 -161 -106q-53 0 -86 25q10 -122 2 -181q-10 -72 -38 -114q-71 -104 -256 -175q-167 -64 -309 -64q-141 0 -232 68q-101 75 -101 212q0 123 100 319q34 66 41 66q11 0 31.5 -9.5
t20.5 -19.5q0 19 -4 20q-8 0 -37 -106q-41 -152 -41 -193q0 -206 267 -206q107 0 249 50q153 54 218 124q8 7 8 52q0 75 -31 176q-30 98 -71 163q0 8 54 162q8 23 19 0q18 -38 74 -158q42 -71 118 -71q124 0 145 204q14 11 30 11t33 -11q0 -106 13 -143q22 -62 96 -62
q140 0 140 208q15 9 31 9t33 -9q7 -129 14 -150q19 -58 93 -58h49v-139z" />
    <glyph glyph-name="uFEB3" unicode="&#x633;" horiz-adv-x="932" arabic-form="initial" 
d="M931 266q0 -77 -74 -167q-81 -98 -174 -98q-53 0 -95.5 31.5t-54.5 82.5q-62 -114 -157 -114q-103 0 -160 111q-63 -111 -168 -111h-74v139h42q181 0 181 206q16 9 34 9q17 0 31 -9q0 -127 16 -157q26 -48 85 -48q130 0 145 204q15 9 31 9q17 0 33 -9q0 -101 17 -141
q26 -61 103 -61q56 0 108 39q45 34 45 59q0 18 -86 137l61 146q11 25 22 6q26 -44 55 -122q34 -91 34 -142z" />
    <glyph glyph-name="uFEB4" unicode="&#x633;" horiz-adv-x="1053" arabic-form="medial" 
d="M1079 1h-50q-95 0 -154 107q-60 -107 -171 -107q-49 0 -92 31.5t-55 78.5q-60 -110 -160 -110q-117 0 -175 109q-61 -109 -174 -109h-74v139h42q186 0 186 206q17 11 32 11q16 0 32 -11q0 -128 16 -157q27 -48 112 -48q141 0 141 204q16 9 33 9q16 0 32 -9q0 -95 13 -134
q24 -71 98 -71q141 0 141 208q11 7 32 7q20 0 33 -7q0 -97 11 -134q22 -74 94 -74h57v-139z" />
    <glyph glyph-name="uFEB6" unicode="&#x634;" horiz-adv-x="1798" arabic-form="final" 
d="M1494 865l-97 -90l-96 95l97 90zM1601 684l-97 -89l-95 95l97 90zM1386 686l-97 -90l-95 96l97 90zM1824 1h-42q-100 0 -154 99q-66 -99 -171 -99q-49 0 -91 29.5t-54 76.5q-57 -106 -161 -106q-53 0 -86 25q10 -122 2 -181q-10 -72 -38 -114q-71 -104 -256 -175
q-167 -64 -309 -64q-141 0 -232 68q-101 75 -101 212q0 123 100 319q34 66 41 66q11 0 31.5 -9.5t20.5 -19.5q0 19 -4 20q-8 0 -37 -106q-41 -152 -41 -193q0 -206 267 -206q107 0 249 50q153 54 218 124q8 7 8 52q0 75 -31 176q-30 98 -71 163q0 8 54 162q8 23 19 0
q18 -38 74 -158q42 -71 118 -71q124 0 145 204q14 11 30 11t33 -11q0 -106 13 -143q22 -62 96 -62q140 0 140 208q15 9 31 9t33 -9q7 -129 14 -150q19 -58 93 -58h49v-139z" />
    <glyph glyph-name="uFEB7" unicode="&#x634;" horiz-adv-x="932" arabic-form="initial" 
d="M719 922l-98 -91l-95 95l97 91zM826 741l-97 -90l-96 96l98 89zM611 743l-97 -90l-95 95l97 90zM931 266q0 -77 -74 -167q-81 -98 -174 -98q-53 0 -95.5 31.5t-54.5 82.5q-62 -114 -157 -114q-103 0 -160 111q-63 -111 -168 -111h-74v139h42q181 0 181 206q16 9 34 9
q17 0 31 -9q0 -127 16 -157q26 -48 85 -48q130 0 145 204q15 9 31 9q17 0 33 -9q0 -101 17 -141q26 -61 103 -61q56 0 108 39q45 34 45 59q0 18 -86 137l61 146q11 25 22 6q26 -44 55 -122q34 -91 34 -142z" />
    <glyph glyph-name="uFEB8" unicode="&#x634;" horiz-adv-x="1053" arabic-form="medial" 
d="M784 860l-98 -89l-95 95l97 90zM891 680l-97 -90l-96 95l98 90zM676 682l-97 -90l-96 95l98 90zM1079 1h-50q-95 0 -154 107q-60 -107 -171 -107q-49 0 -92 31.5t-55 78.5q-60 -110 -160 -110q-117 0 -175 109q-61 -109 -174 -109h-74v139h42q186 0 186 206q17 11 32 11
q16 0 32 -11q0 -128 16 -157q27 -48 112 -48q141 0 141 204q16 9 33 9q16 0 32 -9q0 -95 13 -134q24 -71 98 -71q141 0 141 208q11 7 32 7q20 0 33 -7q0 -97 11 -134q22 -74 94 -74h57v-139z" />
    <glyph glyph-name="uFEBA" unicode="&#x635;" horiz-adv-x="1980" arabic-form="final" 
d="M2006 1h-167q-147 0 -284 39q-135 -39 -244 -39h-184q-40 0 -62 25q9 -116 0 -181q-11 -77 -36 -114q-71 -104 -256 -174q-164 -62 -309 -62q-142 0 -232 66q-101 74 -101 211q0 123 100 319q34 66 41 66q11 0 31.5 -10.5t20.5 -19.5q0 19 -4 20q-8 0 -37 -105
q-41 -151 -41 -193q0 -209 269 -209q112 0 251 54.5t219 130.5q3 15 3 36q0 75 -30.5 179.5t-71.5 167.5q14 58 54 162q9 23 19 0q52 -114 74 -150q28 -45 69 -72q27 -18 53 9q88 92 222 223q47 46 137 92q95 49 165 49q101 0 173 -63q76 -65 76 -165q0 -23 -58 -82
q-51 -52 -81 -71h221v-139zM1808 255q0 60 -64 108q-59 44 -122 44q-105 0 -231 -109q-2 -1 -173 -160h229q137 0 259 50q102 42 102 67z" />
    <glyph glyph-name="uFEBB" unicode="&#x635;" horiz-adv-x="1173" arabic-form="initial" 
d="M1172 276q0 -27 -62 -87q-51 -49 -88 -73q-182 -115 -362 -115h-287q-114 0 -156 112q-54 -112 -178 -112h-65v139h56q154 0 165 204q13 8 31 8q19 0 32 -8q-2 -131 22 -165q29 -40 91 -40q20 0 105 90q111 118 153 151q163 129 295 129q102 0 175 -66t73 -167zM1052 236
q0 62 -60 112q-57 47 -121 47q-96 0 -233 -103q-61 -46 -174 -154h237q140 0 254 41q97 35 97 57z" />
    <glyph glyph-name="uFEBC" unicode="&#x635;" horiz-adv-x="1235" arabic-form="medial" 
d="M1260 1h-201q-105 0 -232 31q-106 -31 -210 -31h-244q-114 0 -156 112q-54 -112 -178 -112h-65v139h56q154 0 165 204q12 6 32 6q19 0 31 -6q-2 -131 22 -165q29 -40 104 -40q15 0 96 90q102 114 149 151q163 129 295 129q100 0 172 -62q76 -64 76 -163q0 -21 -56 -78
q-50 -50 -77 -66h221v-139zM1052 236q0 62 -60 112q-57 47 -121 47q-157 0 -399 -257h229q140 0 254 41q97 35 97 57z" />
    <glyph glyph-name="uFEBE" unicode="&#x636;" horiz-adv-x="1980" arabic-form="final" 
d="M1688 884l-102 -107l-115 100l108 112zM2006 1h-167q-147 0 -284 39q-135 -39 -244 -39h-184q-40 0 -62 25q9 -116 0 -181q-11 -77 -36 -114q-71 -104 -256 -174q-164 -62 -309 -62q-142 0 -232 66q-101 74 -101 211q0 123 100 319q34 66 41 66q11 0 31.5 -10.5
t20.5 -19.5q0 19 -4 20q-8 0 -37 -105q-41 -151 -41 -193q0 -209 269 -209q112 0 251 54.5t219 130.5q3 15 3 36q0 75 -30.5 179.5t-71.5 167.5q14 58 54 162q9 23 19 0q52 -114 74 -150q28 -45 69 -72q27 -18 53 9q88 92 222 223q47 46 137 92q95 49 165 49q101 0 173 -63
q76 -65 76 -165q0 -23 -58 -82q-51 -52 -81 -71h221v-139zM1808 255q0 60 -64 108q-59 44 -122 44q-105 0 -231 -109q-2 -1 -173 -160h229q137 0 259 50q102 42 102 67z" />
    <glyph glyph-name="uFEBF" unicode="&#x636;" horiz-adv-x="1173" arabic-form="initial" 
d="M956 871l-101 -107l-117 100l108 112zM1172 276q0 -27 -62 -87q-51 -49 -88 -73q-182 -115 -362 -115h-287q-114 0 -156 112q-54 -112 -178 -112h-65v139h56q154 0 165 204q13 8 31 8q19 0 32 -8q-2 -131 22 -165q29 -40 91 -40q20 0 105 90q111 118 153 151
q163 129 295 129q102 0 175 -66t73 -167zM1052 236q0 62 -60 112q-57 47 -121 47q-96 0 -233 -103q-61 -46 -174 -154h237q140 0 254 41q97 35 97 57z" />
    <glyph glyph-name="uFEC0" unicode="&#x636;" horiz-adv-x="1235" arabic-form="medial" 
d="M956 868l-101 -108l-117 99l108 113zM1260 1h-201q-105 0 -232 31q-106 -31 -210 -31h-244q-114 0 -156 112q-54 -112 -178 -112h-65v139h56q154 0 165 204q12 6 32 6q19 0 31 -6q-2 -131 22 -165q29 -40 104 -40q15 0 96 90q102 114 149 151q163 129 295 129
q100 0 172 -62q76 -64 76 -163q0 -21 -56 -78q-50 -50 -77 -66h221v-139zM1052 236q0 62 -60 112q-57 47 -121 47q-157 0 -399 -257h229q140 0 254 41q97 35 97 57z" />
    <glyph glyph-name="uFEC2" unicode="&#x637;" horiz-adv-x="1200" arabic-form="final" 
d="M1226 1h-202q-113 0 -240 31q-218 -39 -292 -39h-146q-63 0 -214 162q173 -17 211 -14q-7 742 -73 941l98 119q107 -230 105 -241q-9 0 -70 14q24 -191 30 -737q42 51 153 143q171 141 305 141q103 0 174.5 -67t71.5 -170q0 -22 -63 -78q-56 -50 -87 -66h239v-139z
M1021 246q0 62 -58 110t-121 48q-96 0 -243 -110q-52 -39 -179 -156h238q121 0 249 47q114 42 114 61z" />
    <glyph glyph-name="uFEC3" unicode="&#x637;" horiz-adv-x="915" arabic-form="initial" 
d="M913 279q0 -21 -58 -82q-51 -53 -93 -82q-167 -114 -486 -114h-302v139h152q-7 739 -72 942l97 119q109 -235 106 -241q-9 -3 -71 14q22 -178 29 -607l2 -130q44 52 153 143q155 129 295 129q99 0 173.5 -66t74.5 -164zM792 236q0 62 -61 112q-57 47 -120 47
q-95 0 -236 -107q-47 -36 -171 -152l237 2q139 1 254 42q97 34 97 56z" />
    <glyph glyph-name="uFEC4" unicode="&#x637;" horiz-adv-x="985" arabic-form="medial" 
d="M1010 1h-202q-113 0 -241 31q-173 -31 -291 -31h-302v139h152q-7 739 -72 942l97 119q111 -235 106 -241q-10 -2 -71 14q22 -178 29 -607l2 -130q44 52 153 143q169 141 304 141q104 0 175.5 -66.5t71.5 -170.5q0 -19 -64 -77q-58 -53 -86 -67h239v-139zM804 246
q0 62 -57.5 110t-120.5 48q-136 0 -422 -266h237q121 0 249 47q114 42 114 61z" />
    <glyph glyph-name="uFEC6" unicode="&#x638;" horiz-adv-x="1200" arabic-form="final" 
d="M886 884l-101 -107l-116 100l108 112zM1226 1h-202q-113 0 -240 31q-218 -39 -292 -39h-146q-63 0 -214 162q173 -17 211 -14q-7 742 -73 941l98 119q107 -230 105 -241q-9 0 -70 14q24 -191 30 -737q42 51 153 143q171 141 305 141q103 0 174.5 -67t71.5 -170
q0 -22 -63 -78q-56 -50 -87 -66h239v-139zM1021 246q0 62 -58 110t-121 48q-96 0 -243 -110q-52 -39 -179 -156h238q121 0 249 47q114 42 114 61z" />
    <glyph glyph-name="uFEC7" unicode="&#x638;" horiz-adv-x="915" arabic-form="initial" 
d="M705 868l-102 -108l-116 99l109 113zM913 279q0 -21 -58 -82q-51 -53 -93 -82q-167 -114 -486 -114h-302v139h152q-7 739 -72 942l97 119q109 -235 106 -241q-9 -3 -71 14q22 -178 29 -607l2 -130q44 52 153 143q155 129 295 129q99 0 173.5 -66t74.5 -164zM792 236
q0 62 -61 112q-57 47 -120 47q-95 0 -236 -107q-47 -36 -171 -152l237 2q139 1 254 42q97 34 97 56z" />
    <glyph glyph-name="uFEC8" unicode="&#x638;" horiz-adv-x="985" arabic-form="medial" 
d="M705 863l-102 -107l-116 100l109 111zM1010 1h-202q-113 0 -241 31q-173 -31 -291 -31h-302v139h152q-7 739 -72 942l97 119q111 -235 106 -241q-10 -2 -71 14q22 -178 29 -607l2 -130q44 52 153 143q169 141 304 141q104 0 175.5 -66.5t71.5 -170.5q0 -19 -64 -77
q-58 -53 -86 -67h239v-139zM804 246q0 62 -57.5 110t-120.5 48q-136 0 -422 -266h237q121 0 249 47q114 42 114 61z" />
    <glyph glyph-name="uFECA" unicode="&#x639;" horiz-adv-x="880" arabic-form="final" 
d="M906 1h-52q-156 0 -316 220q-281 -179 -281 -349q0 -153 159 -223q115 -51 291 -51q18 0 92 5q58 5 91 1q9 -2 6 -8q-2 -3 -8 -11q-59 -81 -73 -84q-90 -21 -214 -21q-190 0 -316 72q-154 88 -154 260q0 217 241 396q29 21 106 76q-71 91 -183 91q27 85 49.5 108t91.5 38
q56 12 99 12q55 0 124 -20q92 -27 92 -66q0 -66 -28 -88q-45 -29 -117 -79q69 -66 88 -80q82 -60 165 -60h47v-139z" />
    <glyph glyph-name="uFECB" unicode="&#x639;" horiz-adv-x="752" arabic-form="initial" 
d="M748 304q-28 -65 -65 -135q-9 -2 -315 -89q-279 -79 -348 -79h-46v139h73q105 0 167 29q-121 57 -121 220q0 73 83 160q97 101 221 101q38 0 99 -31q73 -37 113 -94q8 -11 6 -16q-1 -5 -12 -2q-78 20 -140 20q-50 0 -151 -17q-113 -19 -113 -35q0 -145 111 -222
q52 -36 85 -36q37 0 343 99q11 3 13 0q1 -3 -3 -12z" />
    <glyph glyph-name="uFECC" unicode="&#x639;" horiz-adv-x="576" arabic-form="medial" 
d="M602 1h-43q-58 0 -127 38q-64 35 -104 84q-167 -122 -313 -122h-41v139h39q168 0 240 66q-36 53 -72.5 71.5t-101.5 18.5q20 79 49 107q16 15 72 35q68 24 122 24q51 0 115 -22q81 -28 81 -68q0 -74 -116 -162q75 -70 163 -70h37v-139z" />
    <glyph glyph-name="uFECE" unicode="&#x63a;" horiz-adv-x="880" arabic-form="final" 
d="M605 923l-101 -107l-117 100l108 112zM906 1h-52q-156 0 -316 220q-281 -179 -281 -349q0 -153 159 -223q115 -51 291 -51q18 0 92 5q58 5 91 1q9 -2 6 -8q-2 -3 -8 -11q-59 -81 -73 -84q-90 -21 -214 -21q-190 0 -316 72q-154 88 -154 260q0 217 241 396q29 21 106 76
q-71 91 -183 91q27 85 49.5 108t91.5 38q56 12 99 12q55 0 124 -20q92 -27 92 -66q0 -66 -28 -88q-45 -29 -117 -79q69 -66 88 -80q82 -60 165 -60h47v-139z" />
    <glyph glyph-name="uFECF" unicode="&#x63a;" horiz-adv-x="752" arabic-form="initial" 
d="M475 972l-102 -108l-116 99l109 112zM748 304q-28 -65 -65 -135q-9 -2 -315 -89q-279 -79 -348 -79h-46v139h73q105 0 167 29q-121 57 -121 220q0 73 83 160q97 101 221 101q38 0 99 -31q73 -37 113 -94q8 -11 6 -16q-1 -5 -12 -2q-78 20 -140 20q-50 0 -151 -17
q-113 -19 -113 -35q0 -145 111 -222q52 -36 85 -36q37 0 343 99q11 3 13 0q1 -3 -3 -12z" />
    <glyph glyph-name="uFED0" unicode="&#x63a;" horiz-adv-x="576" arabic-form="medial" 
d="M436 833l-102 -108l-115 100l108 111zM602 1h-43q-58 0 -127 38q-64 35 -104 84q-167 -122 -313 -122h-41v139h39q168 0 240 66q-36 53 -72.5 71.5t-101.5 18.5q20 79 49 107q16 15 72 35q68 24 122 24q51 0 115 -22q81 -28 81 -68q0 -74 -116 -162q75 -70 163 -70h37
v-139z" />
    <glyph glyph-name="uFED2" unicode="&#x641;" horiz-adv-x="1417" arabic-form="final" 
d="M1250 954l-101 -108l-116 101l108 111zM1443 1h-63q-123 0 -236 84q-122 -89 -345 -91l-231 -2q-437 -4 -437 265q0 76 50 182q44 93 57 93q8 0 25 -10.5t17 -17.5q0 12 -3 13q-6 0 -25 -63q-28 -93 -28 -122q0 -201 397 -201h196q89 0 197 26l-44 58q-34 57 -34 125
q0 127 120 225q93 76 138 76q25 0 82 -78q67 -92 67 -180q0 -142 -99 -215q57 -28 140 -28h59v-139zM1255 352q0 44 -42 91q-35 39 -50 39q-41 0 -97 -62q-49 -55 -49 -86q0 -29 39 -72q55 -61 90 -61q23 0 64 48q45 53 45 103z" />
    <glyph glyph-name="uFED3" unicode="&#x641;" horiz-adv-x="515" arabic-form="initial" 
d="M371 1049l-101 -107l-116 100l108 111zM511 376q0 -112 -24 -203q-19 -73 -35 -81q-176 -91 -371 -91h-107v139h83q231 0 351 68q11 6 18 53q4 27 4 50q0 16 -2 29q-73 -37 -168 -37q-89 0 -146 39q-20 14 -20 116q0 126 66 227q59 90 109 90q63 0 135 -75
q107 -112 107 -324zM418 482q0 52 -57.5 98.5t-110.5 46.5q-32 0 -52 -52q-16 -42 -16 -80q0 -57 104 -57q27 0 74 12q58 15 58 32z" />
    <glyph glyph-name="uFED4" unicode="&#x641;" horiz-adv-x="587" arabic-form="medial" 
d="M427 954l-101 -108l-117 101l109 111zM614 1h-60q-145 0 -236 84q-73 -53 -139 -70q-54 -14 -154 -14h-51v139h53q113 0 161 17l-44 58q-34 57 -34 125q0 126 121 225q93 76 138 76q24 0 81 -78q68 -92 68 -180q0 -47 -21 -103q-28 -75 -79 -112q58 -28 141 -28h55v-139z
M429 352q0 45 -41 91q-35 39 -51 39q-41 0 -97 -62q-49 -54 -49 -86q0 -29 39 -72q55 -61 90 -61q24 0 64 48q45 53 45 103z" />
    <glyph glyph-name="uFED6" unicode="&#x642;" horiz-adv-x="1222" arabic-form="final" 
d="M1071 744l-99 -102l-106 95l103 104zM848 734l-99 -101l-105 96l103 103zM1248 1h-124q-4 -100 -41 -239q-58 -72 -196 -156q-207 -126 -408 -126q-148 0 -242 68q-106 76 -106 219q0 85 58 241q55 147 75 147q12 0 33 -10.5t21 -20.5q0 19 -4 20q-8 0 -34 -102
q-39 -149 -39 -192q0 -211 258 -211q151 0 321 82q153 74 214 155q12 16 12 126q-152 0 -182 5q-104 17 -146 49q-12 9 -12 121q0 123 66 214q57 78 109 78q56 0 124 -63q101 -93 118 -266h125v-139zM1030 142q0 67 -54 125t-121 58q-31 0 -51 -55q-15 -42 -15 -81
q0 -22 84 -40q32 -7 157 -7z" />
    <glyph glyph-name="uFED7" unicode="&#x642;" horiz-adv-x="515" arabic-form="initial" 
d="M494 1051l-99 -101l-105 95l103 103zM272 1043l-99 -102l-105 95l102 103zM511 376q0 -112 -24 -203q-19 -73 -35 -81q-176 -91 -371 -91h-107v139h83q231 0 351 68q11 6 18 53q4 27 4 50q0 16 -2 29q-73 -37 -168 -37q-89 0 -146 39q-20 14 -20 116q0 126 66 227
q59 90 109 90q63 0 135 -75q107 -112 107 -324zM418 482q0 52 -57.5 98.5t-110.5 46.5q-32 0 -52 -52q-16 -42 -16 -80q0 -57 104 -57q27 0 74 12q58 15 58 32z" />
    <glyph glyph-name="uFED8" unicode="&#x642;" horiz-adv-x="587" arabic-form="medial" 
d="M537 947l-99 -101l-106 95l104 103zM316 938l-99 -101l-106 96l103 102zM614 1h-60q-145 0 -236 84q-73 -53 -139 -70q-54 -14 -154 -14h-51v139h53q113 0 161 17l-44 58q-34 57 -34 125q0 126 121 225q93 76 138 76q24 0 81 -78q68 -92 68 -180q0 -47 -21 -103
q-28 -75 -79 -112q58 -28 141 -28h55v-139zM429 352q0 45 -41 91q-35 39 -51 39q-41 0 -97 -62q-49 -54 -49 -86q0 -29 39 -72q55 -61 90 -61q24 0 64 48q45 53 45 103z" />
    <glyph glyph-name="uFEDE" unicode="&#x644;" horiz-adv-x="1148" arabic-form="final" 
d="M1174 1h-40q-68 0 -116 81q-4 -13 -11 -213q-1 -23 -31 -96q-27 -64 -37 -78q-36 -47 -146 -100q-151 -73 -311 -73q-147 0 -239 57q-112 69 -112 207q0 80 41 197q37 105 50 105q8 0 28 -9.5t20 -14.5q0 15 -2 16q-5 0 -20 -75q-23 -109 -23 -147q0 -93 94 -144
q77 -42 177 -42q131 0 227 35q44 16 115 54q90 48 90 72q5 430 -31 989q-9 137 -14 238q0 5 35 59t46.5 74.5t16.5 22.5q4 -4 5 -25q10 -393 23 -648q12 -235 23 -285q25 -118 107 -118h35v-139z" />
    <glyph glyph-name="uFEDF" unicode="&#x644;" horiz-adv-x="293" arabic-form="initial" 
d="M293 965q-19 1 -62 14l5 -157l21 -562q1 -39 -23 -97t-52 -86q-76 -76 -164 -76h-44v139h43q33 0 84 16q63 20 62 45l-7 210q-8 232 -13 318q-11 179 -37 315q-13 68 -13 48q32 41 98 121q5 -15 59 -139q45 -104 43 -109z" />
    <glyph glyph-name="uFEE0" unicode="&#x644;" horiz-adv-x="397" arabic-form="medial" 
d="M424 1h-47q-105 0 -149 120q-81 -120 -216 -120h-38v139h46q45 0 97 17q70 23 68 59l-37 626q-7 116 -18 208q0 6 37 61q19 29 54 82q4 9 11 17q3 -2 4 -25q13 -421 25 -649t16 -256q23 -140 100 -140h47v-139z" />
    <glyph glyph-name="uFEE2" unicode="&#x645;" horiz-adv-x="950" arabic-form="final" 
d="M976 1h-44q-50 0 -107 27q-13 -88 -53 -162q-53 -98 -127 -98q-33 0 -95 53q-69 59 -86 121q-21 76 -31 199q-36 0 -115 -17q-93 -20 -93 -41q0 18 19 -195q18 -202 13 -284q-1 -15 -28 -53q-31 -44 -63 -62q3 212 -35 574q0 18 21 68.5t33 63.5q35 36 115 64.5t133 26.5
q4 41 12 111q127 -94 257 -167q162 -90 238 -90h36v-139zM752 59q-141 65 -237 128q-1 -37 8 -116q16 -64 66 -108q41 -36 71 -36q29 0 60 53q24 41 32 79z" />
    <glyph glyph-name="uFEE3" unicode="&#x645;" horiz-adv-x="617" arabic-form="initial" 
d="M616 227q0 -31 -42 -103q-34 -59 -47 -70q-22 -18 -79 -19q-47 -1 -82 7q-99 22 -161 82q-31 -34 -61 -68q-58 -55 -112 -55h-58v139h59q85 0 178 158q83 141 143 187q10 8 44 8q104 0 164 -84q54 -74 54 -182zM517 165q3 16 3 34q0 65 -35 111q-38 51 -101 51
q-30 0 -66 -45q-26 -40 -53 -80q81 -80 201 -80q31 0 51 9z" />
    <glyph glyph-name="uFEE4" unicode="&#x645;" horiz-adv-x="784" arabic-form="medial" 
d="M810 1h-54q-73 0 -173 100q-8 -20 -47 -85q-42 -70 -50 -70q-81 0 -181 55q-94 51 -150 118q-77 -118 -136 -118h-45v139h33q48 0 146 106q125 135 167 162q39 25 90 25q47 0 62 -14q63 -80 133 -165q94 -114 171 -114h34v-139zM501 85q4 81 -26 141q-37 74 -113 74
q-31 0 -78 -38q-37 -30 -48 -46q67 -60 113 -84q55 -29 152 -47z" />
    <glyph glyph-name="uFEE6" unicode="&#x646;" horiz-adv-x="1151" arabic-form="final" 
d="M752 559l-101 -107l-117 100l109 112zM1177 1h-35q-44 0 -77 25q11 -135 7 -168q-2 -20 -20.5 -76t-28.5 -70q-71 -104 -254 -166q-155 -53 -305 -53q-142 0 -232 67q-101 74 -101 212q0 82 44 196q12 31 50 111q43 90 51 90q12 0 29.5 -10.5t17.5 -21.5q0 20 -4 21
q-8 0 -36 -107q-41 -155 -41 -202q0 -106 85 -161q73 -48 184 -48q130 0 256 48q135 50 219 139q7 7 7 53q0 75 -43 188q-36 96 -79 163q0 7 55 162q8 22 19 0l90 -171q53 -82 112 -82h30v-139z" />
    <glyph glyph-name="uFEE7" unicode="&#x646;" horiz-adv-x="338" arabic-form="initial" 
d="M319 829l-101 -108l-117 100l108 112zM335 278q0 -106 -84.5 -191.5t-190.5 -85.5h-94v139h69q64 0 126 20q85 28 85 81q0 6 -38 66t-38 64q0 6 60 159q5 13 10 5q95 -143 95 -257z" />
    <glyph glyph-name="uFEE8" unicode="&#x646;" horiz-adv-x="473" arabic-form="medial" 
d="M336 729l-101 -108l-116 100l108 112zM498 1h-76q-117 0 -181 106q-77 -106 -208 -106h-59v139h46q190 0 190 205q13 8 35 8q21 0 30 -8q0 -117 27 -155q35 -50 155 -50h41v-139z" />
    <glyph glyph-name="uFEEA" unicode="&#x647;" horiz-adv-x="773" arabic-form="final" 
d="M799 1h-33q-90 0 -140 62q-34 42 -67 146q-43 -50 -94 -100q-77 -4 -188 17q-146 27 -146 81q0 9 28.5 93t32.5 88q67 68 291 151l-23 133q10 19 60 129q9 20 11.5 0.5t64.5 -338.5q27 -138 45 -190q47 -133 119 -133h39v-139zM548 244q-9 45 -45 203l-119 -47
q-134 -59 -134 -100q0 -7 8 -12q63 -42 290 -44z" />
    <glyph glyph-name="uFEEB" unicode="&#x647;" horiz-adv-x="800" arabic-form="initial" 
d="M798 227q0 -31 -39 -116q-42 -89 -65 -93q-253 32 -367 70q-209 -87 -310 -87h-43v139h61q114 0 162 29q-52 26 -52 139q0 129 132 236q-16 11 -66 33l42 159q153 -101 306 -211q99 -72 145 -117q94 -93 94 -181zM713 189q0 92 -174 206q6 -39 6 -66q0 -77 -79 -147
q185 -40 205 -40q26 0 31 4q11 8 11 43zM465 359q0 53 -35 90q-27 28 -44 28q-60 0 -107 -46t-47 -105q0 -36 48 -73q43 -33 69 -33q23 0 63 33q53 44 53 106z" />
    <glyph glyph-name="uFEEC" unicode="&#x647;" horiz-adv-x="788" arabic-form="medial" 
d="M815 1h-66q-64 0 -135 -52q-63 -46 -63 -68q0 -38 31 -98q48 -94 144 -141q3 -2 3 -8q0 -26 -49 -143q-297 150 -417 350q-34 57 -73 177q-55 -17 -150 -17h-65v139h99q47 0 93 13q-4 49 -4 97q0 177 52 310q39 100 59 100q78 -23 137 -113q90 -138 90 -388
q0 -32 -95 -75q-64 -29 -125 -46q42 -156 220 -275q-17 44 -17 101q0 100 27 138q98 138 264 138h40v-139zM430 237q-55 208 -140 247q-51 -94 -51 -242q0 -35 1 -79q47 7 105 24q85 25 85 50z" />
    <glyph glyph-name="uFEEE" unicode="&#x648;" horiz-adv-x="694" arabic-form="final" 
d="M720 1h-93q-12 -98 -74 -221q-42 -83 -144 -204q-71 -84 -93 -84q-97 0 -198 56q-24 13 -25 18q0 6 23 15q138 53 250 152q159 140 181 269h-124q-147 0 -199 55q-10 10 -5 126q5 115 84 214q69 86 117 86q53 0 120 -72q93 -100 99 -271h81v-139zM551 144q0 60 -47 127
q-51 73 -108 73q-38 0 -62 -62q-19 -49 -19 -95q0 -24 69 -36q112 -20 167 -7z" />
    <glyph glyph-name="uFEF0" unicode="&#x649;" horiz-adv-x="1165" arabic-form="final" 
d="M1191 1h-168q-82 0 -155 -46q-22 -14 -22 -21t22 -14q37 -11 132 -41q100 -33 100 -61q0 -41 -9 -108q-11 -86 -29 -95q-58 -31 -204 -72q-200 -56 -359 -56q-147 0 -245 56q-120 69 -120 205q0 120 48 236q14 34 45 92q40 76 50 76t32.5 -11.5t22.5 -19.5q0 21 -5 21
q-10 0 -43 -103q-49 -149 -49 -192q0 -217 298 -217q273 0 488 84q7 3 8 12q0 8 -5 11q-21 14 -154 55q-108 34 -108 60q0 25 21 106q22 85 35 96q34 29 93 55q72 31 133 31h147v-139z" />
    <glyph glyph-name=".notdef" horiz-adv-x="1024" 
d="M128 0v1360h768v-1360h-768zM256 128h512v1104h-512v-1104z" />
    <glyph glyph-name=".null" 
 />
    <glyph glyph-name="nonmarkingreturn" horiz-adv-x="465" 
 />
    <glyph glyph-name="space" unicode=" " horiz-adv-x="465" 
 />
    <glyph glyph-name="exclam" unicode="!" horiz-adv-x="355" 
d="M341 1196q-16 -53 -40 -293q-25 -249 -25 -369v-190l-81 -24q-54 278 -54 656v147zM352 70q0 -46 -32.5 -75t-79.5 -29t-78 30t-31 77q0 48 34.5 79.5t82.5 31.5q104 0 104 -114z" />
    <glyph glyph-name="percent" unicode="%" horiz-adv-x="954" 
d="M403 1123q-54 -59 -163 -196q-80 75 -189 153q98 102 147 193q44 -40 205 -150zM906 1323l-763 -1451h-97l756 1451h104zM884 127q-75 -82 -163 -196q-77 70 -189 152q103 111 148 194q52 -48 204 -150z" />
    <glyph glyph-name="parenleft" unicode="(" horiz-adv-x="454" 
d="M455 1220q-199 -443 -199 -900q0 -436 196 -828q-11 -14 -42 -13q-29 1 -34 13q-244 452 -244 833q0 429 247 895q6 9 35 9q30 0 41 -9z" />
    <glyph glyph-name="parenright" unicode=")" horiz-adv-x="459" 
d="M455 325q0 -381 -244 -833q-3 -12 -33 -13q-32 -1 -43 13q197 392 197 828q0 457 -200 900q12 9 41 9t36 -9q246 -466 246 -895z" />
    <glyph glyph-name="asterisk" unicode="*" horiz-adv-x="967" 
d="M846 589q-64 -64 -195 -96q-10 -2 -14 1.5t-2 13.5q32 131 95 194q23 23 55 23q34 0 58.5 -25t24.5 -59q0 -30 -22 -52zM642 405q0 -38 -28.5 -66.5t-66.5 -28.5t-65 28.5t-27 66.5t27 65t65 27q39 0 67 -26.5t28 -65.5zM732 107q-62 62 -97 196q-3 10 1.5 13.5t14.5 1.5
q130 -31 193 -94q24 -24 24 -55q0 -33 -26 -58t-59 -25q-30 0 -51 21zM249 222q63 63 196 96q10 3 13.5 -1t1.5 -14q-34 -134 -93 -193q-24 -24 -55 -24q-32 0 -58 26t-26 58q0 31 21 52zM365 705q61 -60 95 -197q2 -10 -1.5 -13.5t-13.5 -1.5q-130 31 -193 94
q-23 23 -23 55q0 33 25.5 58.5t58.5 25.5q30 0 52 -21zM889 324q-86 0 -207 72q-17 10 0 20q118 71 203 71q79 0 79 -82q0 -81 -75 -81zM466 65q0 85 72 207q10 18 21 0q70 -116 70 -204q0 -78 -83 -78q-32 0 -56 21.5t-24 53.5zM207 488q86 0 207 -72q17 -10 0 -20
q-117 -71 -205 -71q-78 0 -78 82q0 33 21.5 57t54.5 24zM630 747q0 -87 -71 -207q-10 -18 -21 0q-71 117 -71 204q0 78 81 78q33 0 57.5 -21t24.5 -54z" />
    <glyph glyph-name="plus" unicode="+" horiz-adv-x="869" 
d="M819 411h-342v-340h-88v339h-339v87h341v343h87v-341h341v-88z" />
    <glyph glyph-name="comma" unicode="," horiz-adv-x="382" 
d="M137 -193q167 112 167 206q-10 -14 -49 -14q-106 0 -106 110q0 102 112 102q63 0 96 -56q28 -46 28 -113q0 -150 -186 -273q-21 3 -62 38z" />
    <glyph glyph-name="hyphen" unicode="-" horiz-adv-x="869" 
d="M819 411l-769 -1v87l769 2v-88z" />
    <glyph glyph-name="period" unicode="." horiz-adv-x="344" 
d="M343 102q0 -44 -31.5 -75t-75.5 -31t-74.5 31t-30.5 75t30.5 75t74.5 31t75.5 -31t31.5 -75z" />
    <glyph glyph-name="slash" unicode="/" horiz-adv-x="520" 
d="M472 1231l-332 -1300h-92l337 1300h87z" />
    <glyph glyph-name="zero" unicode="0" horiz-adv-x="819" 
d="M599 456q-114 -106 -168 -207q-134 133 -212 162q106 77 165 197q71 -72 215 -152z" />
    <glyph glyph-name="zero" unicode="&#x6f0;" horiz-adv-x="819" 
d="M599 456q-114 -106 -168 -207q-134 133 -212 162q106 77 165 197q71 -72 215 -152z" />
    <glyph glyph-name="zero" unicode="&#x660;" horiz-adv-x="819" 
d="M599 456q-114 -106 -168 -207q-134 133 -212 162q106 77 165 197q71 -72 215 -152z" />
    <glyph glyph-name="one" unicode="1" horiz-adv-x="819" 
d="M608 89q-8 -26 -40 -63q-46 -52 -60 -73l-3 166q-4 200 -90 428q-81 215 -207 387q37 57 84 156q102 -140 185 -333q133 -311 133 -601q0 -34 -2 -67z" />
    <glyph glyph-name="one" unicode="&#x6f1;" horiz-adv-x="819" 
d="M608 89q-8 -26 -40 -63q-46 -52 -60 -73l-3 166q-4 200 -90 428q-81 215 -207 387q37 57 84 156q102 -140 185 -333q133 -311 133 -601q0 -34 -2 -67z" />
    <glyph glyph-name="one" unicode="&#x661;" horiz-adv-x="819" 
d="M608 89q-8 -26 -40 -63q-46 -52 -60 -73l-3 166q-4 200 -90 428q-81 215 -207 387q37 57 84 156q102 -140 185 -333q133 -311 133 -601q0 -34 -2 -67z" />
    <glyph glyph-name="two" unicode="2" horiz-adv-x="819" 
d="M747 1036q-4 -52 -29 -119q-36 -97 -91 -139q-58 -44 -159 -44q-78 0 -138 22q148 -320 148 -565v-103q-8 -21 -43 -63q-47 -57 -64 -82v151q0 190 -101 457q-93 246 -200 378l85 167q49 -63 99 -126q87 -90 216 -90q88 0 141 73q27 37 72 150q26 -23 64 -67z" />
    <glyph glyph-name="two" unicode="&#x6f2;" horiz-adv-x="819" 
d="M747 1036q-4 -52 -29 -119q-36 -97 -91 -139q-58 -44 -159 -44q-78 0 -138 22q148 -320 148 -565v-103q-8 -21 -43 -63q-47 -57 -64 -82v151q0 190 -101 457q-93 246 -200 378l85 167q49 -63 99 -126q87 -90 216 -90q88 0 141 73q27 37 72 150q26 -23 64 -67z" />
    <glyph glyph-name="two" unicode="&#x662;" horiz-adv-x="819" 
d="M747 1036q-4 -52 -29 -119q-36 -97 -91 -139q-58 -44 -159 -44q-78 0 -138 22q148 -320 148 -565v-103q-8 -21 -43 -63q-47 -57 -64 -82v151q0 190 -101 457q-93 246 -200 378l85 167q49 -63 99 -126q87 -90 216 -90q88 0 141 73q27 37 72 150q26 -23 64 -67z" />
    <glyph glyph-name="three" unicode="3" horiz-adv-x="819" 
d="M791 1081q4 -37 4 -71q0 -95 -32 -165q-41 -90 -127 -90q-87 0 -126 91q-46 -108 -161 -108q-30 0 -65 7q136 -272 138 -526l1 -129q-4 -21 -38 -63q-50 -62 -59 -77v124q0 392 -299 858l86 155q24 -36 89 -127q51 -69 135 -69q129 0 129 192h65q10 -180 116 -180
q73 0 73 209z" />
    <glyph glyph-name="three" unicode="&#x6f3;" horiz-adv-x="819" 
d="M791 1081q4 -37 4 -71q0 -95 -32 -165q-41 -90 -127 -90q-87 0 -126 91q-46 -108 -161 -108q-30 0 -65 7q136 -272 138 -526l1 -129q-4 -21 -38 -63q-50 -62 -59 -77v124q0 392 -299 858l86 155q24 -36 89 -127q51 -69 135 -69q129 0 129 192h65q10 -180 116 -180
q73 0 73 209z" />
    <glyph glyph-name="three" unicode="&#x663;" horiz-adv-x="819" 
d="M791 1081q4 -37 4 -71q0 -95 -32 -165q-41 -90 -127 -90q-87 0 -126 91q-46 -108 -161 -108q-30 0 -65 7q136 -272 138 -526l1 -129q-4 -21 -38 -63q-50 -62 -59 -77v124q0 392 -299 858l86 155q24 -36 89 -127q51 -69 135 -69q129 0 129 192h65q10 -180 116 -180
q73 0 73 209z" />
    <glyph glyph-name="four" unicode="4" horiz-adv-x="819" 
d="M786 868q-15 -65 -40 -136q-31 -30 -113 -50q-69 -17 -125 -17q-93 0 -187 35q119 -291 119 -502v-128q-59 -87 -101 -124v132q0 223 -106 475q-81 192 -201 357q18 41 89 171q64 -76 130 -151q72 -82 134 -103q-26 56 -26 107q0 80 61 133q58 52 139 52q106 0 135 -49
q20 -34 20 -101q-120 36 -151 36q-39 0 -74 -21q-41 -24 -41 -61q0 -118 152 -118q69 0 186 63z" />
    <glyph glyph-name="four" unicode="&#x6f4;" horiz-adv-x="819" 
d="M786 868q-15 -65 -40 -136q-31 -30 -113 -50q-69 -17 -125 -17q-93 0 -187 35q119 -291 119 -502v-128q-59 -87 -101 -124v132q0 223 -106 475q-81 192 -201 357q18 41 89 171q64 -76 130 -151q72 -82 134 -103q-26 56 -26 107q0 80 61 133q58 52 139 52q106 0 135 -49
q20 -34 20 -101q-120 36 -151 36q-39 0 -74 -21q-41 -24 -41 -61q0 -118 152 -118q69 0 186 63z" />
    <glyph glyph-name="four" unicode="&#x664;" horiz-adv-x="819" 
d="M786 868q-15 -65 -40 -136q-31 -30 -113 -50q-69 -17 -125 -17q-93 0 -187 35q119 -291 119 -502v-128q-59 -87 -101 -124v132q0 223 -106 475q-81 192 -201 357q18 41 89 171q64 -76 130 -151q72 -82 134 -103q-26 56 -26 107q0 80 61 133q58 52 139 52q106 0 135 -49
q20 -34 20 -101q-120 36 -151 36q-39 0 -74 -21q-41 -24 -41 -61q0 -118 152 -118q69 0 186 63z" />
    <glyph glyph-name="five" unicode="5" horiz-adv-x="819" 
d="M755 325q0 -328 -196 -328q-109 0 -143 131q-78 -128 -173 -128q-82 0 -131 78q-43 67 -43 154q0 217 253 623q-32 30 -65 54q8 16 77 165q61 -45 148 -143q102 -115 167 -224q106 -178 106 -382zM658 290q0 135 -98 299q-78 130 -167 209q-218 -347 -218 -541
q0 -40 28 -72.5t67 -32.5q107 0 115 167h65q21 -169 109 -169q99 0 99 140z" />
    <glyph glyph-name="five" unicode="&#x6f5;" horiz-adv-x="819" 
d="M755 325q0 -328 -196 -328q-109 0 -143 131q-78 -128 -173 -128q-82 0 -131 78q-43 67 -43 154q0 217 253 623q-32 30 -65 54q8 16 77 165q61 -45 148 -143q102 -115 167 -224q106 -178 106 -382zM658 290q0 135 -98 299q-78 130 -167 209q-218 -347 -218 -541
q0 -40 28 -72.5t67 -32.5q107 0 115 167h65q21 -169 109 -169q99 0 99 140z" />
    <glyph glyph-name="five" unicode="&#x665;" horiz-adv-x="819" 
d="M755 325q0 -328 -196 -328q-109 0 -143 131q-78 -128 -173 -128q-82 0 -131 78q-43 67 -43 154q0 217 253 623q-32 30 -65 54q8 16 77 165q61 -45 148 -143q102 -115 167 -224q106 -178 106 -382zM658 290q0 135 -98 299q-78 130 -167 209q-218 -347 -218 -541
q0 -40 28 -72.5t67 -32.5q107 0 115 167h65q21 -169 109 -169q99 0 99 140z" />
    <glyph glyph-name="six" unicode="6" horiz-adv-x="819" 
d="M808 768q-4 -11 -39 -75q-14 -27 -54 -101q-41 -15 -147 -56q-119 -50 -228 -165q-147 -156 -329 -409v162q56 98 155 228q111 145 191 206q-117 15 -195 95q-56 57 -56 102q0 9 2 15q65 182 113 243q77 98 199 98q85 0 152 -25q49 -18 56 -33q38 -77 38 -131
q-148 51 -237 51q-82 0 -154 -57q-59 -46 -59 -71q0 -34 56 -82q82 -70 232 -70q47 0 304 75z" />
    <glyph glyph-name="six" unicode="&#x6f6;" horiz-adv-x="819" 
d="M808 768q-4 -11 -39 -75q-14 -27 -54 -101q-41 -15 -147 -56q-119 -50 -228 -165q-147 -156 -329 -409v162q56 98 155 228q111 145 191 206q-117 15 -195 95q-56 57 -56 102q0 9 2 15q65 182 113 243q77 98 199 98q85 0 152 -25q49 -18 56 -33q38 -77 38 -131
q-148 51 -237 51q-82 0 -154 -57q-59 -46 -59 -71q0 -34 56 -82q82 -70 232 -70q47 0 304 75z" />
    <glyph glyph-name="six" unicode="&#x666;" horiz-adv-x="819" 
d="M808 768q-4 -11 -39 -75q-14 -27 -54 -101q-41 -15 -147 -56q-119 -50 -228 -165q-147 -156 -329 -409v162q56 98 155 228q111 145 191 206q-117 15 -195 95q-56 57 -56 102q0 9 2 15q65 182 113 243q77 98 199 98q85 0 152 -25q49 -18 56 -33q38 -77 38 -131
q-148 51 -237 51q-82 0 -154 -57q-59 -46 -59 -71q0 -34 56 -82q82 -70 232 -70q47 0 304 75z" />
    <glyph glyph-name="seven" unicode="7" horiz-adv-x="819" 
d="M802 875q-165 -154 -261 -463q-68 -219 -80 -412h-91q-14 237 -102 477q-99 269 -249 415l65 198q117 -76 221 -363q87 -240 106 -425q96 561 357 796q34 -169 34 -223z" />
    <glyph glyph-name="seven" unicode="&#x6f7;" horiz-adv-x="819" 
d="M802 875q-165 -154 -261 -463q-68 -219 -80 -412h-91q-14 237 -102 477q-99 269 -249 415l65 198q117 -76 221 -363q87 -240 106 -425q96 561 357 796q34 -169 34 -223z" />
    <glyph glyph-name="seven" unicode="&#x667;" horiz-adv-x="819" 
d="M802 875q-165 -154 -261 -463q-68 -219 -80 -412h-91q-14 237 -102 477q-99 269 -249 415l65 198q117 -76 221 -363q87 -240 106 -425q96 561 357 796q34 -169 34 -223z" />
    <glyph glyph-name="eight" unicode="8" horiz-adv-x="819" 
d="M801 207q0 -64 -35 -223q-258 232 -356 797q-25 -239 -132 -489q-103 -240 -196 -299q-11 33 -64 198q150 145 249 415q88 240 102 477h90q13 -193 81 -412q97 -312 261 -464z" />
    <glyph glyph-name="eight" unicode="&#x6f8;" horiz-adv-x="819" 
d="M801 207q0 -64 -35 -223q-258 232 -356 797q-25 -239 -132 -489q-103 -240 -196 -299q-11 33 -64 198q150 145 249 415q88 240 102 477h90q13 -193 81 -412q97 -312 261 -464z" />
    <glyph glyph-name="eight" unicode="&#x668;" horiz-adv-x="819" 
d="M801 207q0 -64 -35 -223q-258 232 -356 797q-25 -239 -132 -489q-103 -240 -196 -299q-11 33 -64 198q150 145 249 415q88 240 102 477h90q13 -193 81 -412q97 -312 261 -464z" />
    <glyph glyph-name="nine" unicode="9" horiz-adv-x="819" 
d="M750 171q2 -6 -43 -191q-72 40 -135 122q-76 97 -84 176q-16 150 -37 328q-65 -54 -186 -54q-68 0 -144 57q-66 49 -66 70q0 125 41 245q59 172 172 166q162 -9 223 -143q34 -75 47 -255q10 -134 13 -163q8 -71 28 -132q55 -169 171 -226zM433 748q-6 71 -58.5 124.5
t-123.5 53.5q-98 0 -98 -135q0 -37 54 -57q40 -15 84 -15q87 0 142 29z" />
    <glyph glyph-name="nine" unicode="&#x6f9;" horiz-adv-x="819" 
d="M750 171q2 -6 -43 -191q-72 40 -135 122q-76 97 -84 176q-16 150 -37 328q-65 -54 -186 -54q-68 0 -144 57q-66 49 -66 70q0 125 41 245q59 172 172 166q162 -9 223 -143q34 -75 47 -255q10 -134 13 -163q8 -71 28 -132q55 -169 171 -226zM433 748q-6 71 -58.5 124.5
t-123.5 53.5q-98 0 -98 -135q0 -37 54 -57q40 -15 84 -15q87 0 142 29z" />
    <glyph glyph-name="nine" unicode="&#x669;" horiz-adv-x="819" 
d="M750 171q2 -6 -43 -191q-72 40 -135 122q-76 97 -84 176q-16 150 -37 328q-65 -54 -186 -54q-68 0 -144 57q-66 49 -66 70q0 125 41 245q59 172 172 166q162 -9 223 -143q34 -75 47 -255q10 -134 13 -163q8 -71 28 -132q55 -169 171 -226zM433 748q-6 71 -58.5 124.5
t-123.5 53.5q-98 0 -98 -135q0 -37 54 -57q40 -15 84 -15q87 0 142 29z" />
    <glyph glyph-name="colon" unicode=":" horiz-adv-x="344" 
d="M343 571q0 -44 -31.5 -75t-75.5 -31t-74.5 31t-30.5 75q0 43 31 74t74 31q44 0 75.5 -30.5t31.5 -74.5zM343 102q0 -44 -31.5 -75t-75.5 -31t-74.5 31t-30.5 75t30.5 75t74.5 31t75.5 -31t31.5 -75z" />
    <glyph glyph-name="equal" unicode="=" horiz-adv-x="876" 
d="M823 566h-768v87h768v-87zM823 245h-768v87h768v-87z" />
    <glyph glyph-name="bracketleft" unicode="[" horiz-adv-x="493" 
d="M483 -362h-343v1593h343v-43h-250v-1508h250v-42z" />
    <glyph glyph-name="bracketright" unicode="]" horiz-adv-x="493" 
d="M489 -362h-341v42h249v1508h-249v43h341v-1593z" />
    <glyph glyph-name="braceleft" unicode="{" horiz-adv-x="981" 
d="M832 -320q-152 27 -249 129q-103 107 -103 257q0 61 26 177q19 85 19 112q0 97 -72 163q-67 62 -166 73v38q239 52 239 219q0 47 -16 122q-27 126 -27 188q0 151 101 257q96 102 248 127v-40q-94 -14 -155 -73q-67 -64 -67 -155q0 -46 13 -115q30 -160 30 -210
q0 -224 -286 -336q283 -116 283 -350q0 -49 -27 -179q-17 -82 -17 -135q0 -180 226 -233v-36z" />
    <glyph glyph-name="braceright" unicode="}" horiz-adv-x="981" 
d="M695 593q-239 -52 -239 -220q0 -52 15 -122q28 -131 28 -187q0 -151 -101 -257q-96 -102 -248 -127v40q94 14 155 73q66 63 66 155q0 48 -12 114q-30 164 -30 211q0 223 285 336q-282 116 -282 349q0 55 26 180q18 87 18 135q0 180 -226 233v36q152 -28 249 -129
q103 -106 103 -257q0 -57 -27 -177q-18 -80 -18 -113q0 -97 73 -162q64 -58 165 -74v-37z" />
    <glyph glyph-name="guillemotleft" unicode="&#xab;" horiz-adv-x="854" 
d="M804 129h-93l-340 400l340 393h87l-226 -393zM497 129h-89l-338 400l340 393h87l-226 -393z" />
    <glyph glyph-name="periodcentered" unicode="&#xb7;" horiz-adv-x="405" 
d="M326 768q0 -50 -35.5 -85t-85.5 -35q-49 0 -84.5 35.5t-35.5 84.5t34.5 85t83.5 36q51 0 87 -35t36 -86z" />
    <glyph glyph-name="periodcentered" unicode="&#x2219;" horiz-adv-x="405" 
d="M326 768q0 -50 -35.5 -85t-85.5 -35q-49 0 -84.5 35.5t-35.5 84.5t34.5 85t83.5 36q51 0 87 -35t36 -86z" />
    <glyph glyph-name="periodcentered" unicode="&#x2d9;" horiz-adv-x="405" 
d="M326 768q0 -50 -35.5 -85t-85.5 -35q-49 0 -84.5 35.5t-35.5 84.5t34.5 85t83.5 36q51 0 87 -35t36 -86z" />
    <glyph glyph-name="guillemotright" unicode="&#xbb;" horiz-adv-x="854" 
d="M784 529l-338 -400h-89l226 400l-226 393h87zM483 529l-340 -400h-93l232 400l-226 393h87z" />
    <glyph glyph-name="multiply" unicode="&#xd7;" horiz-adv-x="806" 
d="M748 153l-63 -63l-287 287l-283 -286l-63 63l284 284l-284 283l63 63l284 -285l286 286l63 -63l-286 -284z" />
    <glyph glyph-name="divide" unicode="&#xf7;" horiz-adv-x="869" 
d="M819 410h-769v87h769v-87zM424 584q-49 0 -83 34.5t-34 83.5t34 84t83 35t84 -35t35 -84t-35 -83.5t-84 -34.5zM424 90q-49 0 -83 34.5t-34 83.5t34 84t83 35t84 -35t35 -84t-35 -83.5t-84 -34.5z" />
    <glyph glyph-name="u060C" unicode="&#x60c;" horiz-adv-x="382" 
d="M382 397q-167 -112 -167 -206q10 14 49 14q106 0 106 -110q0 -102 -112 -102q-63 0 -96 56q-28 46 -28 113q0 150 186 273q21 -3 62 -38z" />
    <glyph glyph-name="u061B" unicode="&#x61b;" horiz-adv-x="385" 
d="M382 873q-167 -111 -167 -206q10 15 49 15q106 0 106 -110q0 -102 -112 -102q-124 0 -124 169q0 150 186 272q21 -2 62 -38zM359 102q0 -44 -30.5 -75t-74.5 -31t-75 31t-31 75t31 75t75 31t74.5 -31t30.5 -75z" />
    <glyph glyph-name="u061F" unicode="&#x61f;" horiz-adv-x="616" 
d="M617 1144q-11 -44 -54 -140q-152 24 -181 24q-56 0 -107 -34q-56 -38 -56 -91q0 -80 83 -148q52 -39 154 -119q83 -68 83 -145q0 -54 -38 -107q-31 -44 -43 -44q-69 30 -114 62q67 45 67 109q0 40 -82 104q-119 93 -151 129q-81 91 -81 197q0 112 102 182q90 62 199 62
q162 0 219 -41zM528 86q0 -43 -30.5 -73t-73.5 -30q-42 0 -72.5 30.5t-30.5 72.5t30.5 72.5t72.5 30.5q43 0 73.5 -30t30.5 -73z" />
    <glyph glyph-name="u0621" unicode="&#x621;" horiz-adv-x="576" 
d="M575 257q2 -14 -11.5 -65.5t-20.5 -52.5q-12 -2 -115 -14q-139 -32 -297 -133q0 40 6 85q37 28 113 71l16 9q-57 36 -66 45q-33 31 -33 82q0 59 81.5 131t141.5 72q103 0 140 -74l-79 -69q-46 41 -83 41q-25 0 -67 -26q-45 -27 -45 -50q0 -30 51 -63q48 -32 80 -32
q11 0 85 19q83 21 103 24z" />
    <glyph glyph-name="u0640" unicode="&#x640;" horiz-adv-x="598" 
d="M626 1h-652v139h652v-139z" />
    <glyph glyph-name="u064B" unicode="&#x64b;" 
d="M358 1604l-312 -125v79l312 128v-82zM358 1439l-312 -125v80l312 127v-82z" />
    <glyph glyph-name="u064C" unicode="&#x64c;" 
d="M354 1558q2 -12 2 -23q0 -24 -8 -47q-21 8 -63 20q-36 -140 -170 -193q-3 15 0 74q2 49 -10 73q-19 -13 -65 -40l-6 88q34 18 85 44q29 -35 29 -132q49 16 93 103q-113 58 -113 85q0 52 38 104q40 57 90 57q63 0 63 -99q0 -41 -12 -97q7 -2 47 -17zM271 1662q0 49 -32 49
q-34 0 -57 -65q20 -19 75 -55q14 34 14 71z" />
    <glyph glyph-name="u064D" unicode="&#x64d;" 
d="M402 -643l-313 -125v79l313 128v-82zM402 -808l-313 -125v79l313 128v-82z" />
    <glyph glyph-name="u064E" unicode="&#x64e;" 
d="M358 1474l-312 -125v79l312 128v-82z" />
    <glyph glyph-name="u064F" unicode="&#x64f;" 
d="M341 1455q-19 6 -75 25q-52 -60 -86 -87q-61 -47 -149 -76v82q119 30 179 100q-109 58 -109 71q0 49 45 110q50 68 108 68q30 0 48 -38q15 -31 15 -63q0 -43 -23 -102q22 -10 47 -16v-74zM265 1625q0 19 -13 38t-31 19q-36 0 -66 -71q47 -38 95 -55q15 41 15 69z" />
    <glyph glyph-name="u0650" unicode="&#x650;" 
d="M402 -646l-313 -125v79l313 128v-82z" />
    <glyph glyph-name="u0651" unicode="&#x651;" 
d="M361 1490q0 -128 -78 -128q-49 0 -62 58q-22 -101 -91 -101q-56 0 -71 62q-7 29 -6 108q9 3 48 20q5 -112 34 -112q36 0 46 56q3 38 5 76l50 14q7 -101 40 -101q27 0 31 45q0 11 -2 85l47 15q9 -65 9 -97z" />
    <glyph glyph-name="u0652" unicode="&#x652;" 
d="M324 1442q0 -119 -142 -119q-41 0 -72 25q-34 26 -34 66q0 87 101 211q147 -61 147 -183zM274 1428q-10 70 -98 110q-45 -55 -45 -97q0 -16 22 -29q19 -11 37 -11q48 0 84 27z" />
    <glyph glyph-name="zeronojoin" unicode="&#x200c;" horiz-adv-x="38" 
 />
    <glyph glyph-name="zerojoin" unicode="&#x200d;" horiz-adv-x="38" 
 />
    <glyph glyph-name="lefttoright" unicode="&#x200e;" horiz-adv-x="38" 
d="M254 1351l-113 -115l-28 24l74 75h-149v-1335h-38v1371h182l-69 69l28 26z" />
    <glyph glyph-name="righttoleft" unicode="&#x200f;" horiz-adv-x="38" 
d="M38 0h-38v1335h-149l72 -75l-24 -24l-117 115l117 115l24 -26l-69 -69h184v-1371z" />
    <glyph glyph-name="quoteleft" unicode="&#x2018;" horiz-adv-x="491" 
d="M467 1486q-89 -59 -154 -145q-76 -101 -76 -193q0 -55 32 -98q39 47 90 47q102 0 102 -100q0 -59 -48 -92q-43 -30 -104 -30q-82 0 -133 50.5t-51 132.5q0 141 108 283q97 127 234 200v-55z" />
    <glyph glyph-name="quoteright" unicode="&#x2019;" horiz-adv-x="491" 
d="M444 1353q0 -143 -107 -281q-91 -118 -232 -200v56q228 162 228 338q0 62 -33 101q-33 -49 -95 -49q-41 0 -69.5 28t-28.5 69q0 58 49 93q43 31 104 31q86 0 135 -50t49 -136z" />
    <glyph glyph-name="quotedblleft" unicode="&#x201c;" horiz-adv-x="650" 
d="M572 1146q-13 -6 -41 -26q-52 -51 -52 -95q82 -22 82 -112q0 -45 -31.5 -78t-76.5 -33q-52 0 -84 42q-29 38 -29 92q0 201 203 359q0 -83 1 -93q4 -40 28 -56zM302 1146q-13 -6 -41 -26q-52 -51 -52 -95q82 -22 82 -112q0 -45 -31.5 -78t-76.5 -33q-52 0 -84 42
q-29 38 -29 92q0 201 203 359q0 -83 1 -93q4 -40 28 -56z" />
    <glyph glyph-name="quotedblright" unicode="&#x201d;" horiz-adv-x="650" 
d="M580 1151q0 -201 -203 -359q0 83 -1 93q-4 40 -28 56q13 6 41 26q52 51 52 95q-82 22 -82 112q0 46 31 78.5t77 32.5q54 0 85 -41q28 -37 28 -93zM310 1151q0 -201 -203 -359q0 83 -1 93q-4 40 -28 56q13 6 41 26q52 51 52 95q-82 22 -82 112q0 46 31 78.5t77 32.5
q54 0 85 -41q28 -37 28 -93z" />
    <glyph glyph-name="guilsinglleft" unicode="&#x2039;" horiz-adv-x="512" 
d="M457 966l-228 -382l222 -380v-75l-383 455l389 457v-75z" />
    <glyph glyph-name="guilsinglright" unicode="&#x203a;" horiz-adv-x="512" 
d="M457 586l-393 -457v75l231 382l-222 381v77z" />
    <glyph glyph-name="uE820" unicode="&#xe820;" 
d="M368 997l-312 -125v79l312 128v-82z" />
    <glyph glyph-name="uE821" unicode="&#xe821;" 
d="M360 1021q-19 6 -75 25q-52 -60 -86 -87q-61 -47 -149 -76v82q119 30 179 100q-109 58 -109 71q0 49 45 110q50 68 108 68q30 0 48 -38q15 -31 15 -63q0 -43 -23 -102q22 -10 47 -16v-74zM284 1191q0 19 -13 38t-31 19q-36 0 -66 -71q47 -38 95 -55q15 41 15 69z" />
    <glyph glyph-name="uE822" unicode="&#xe822;" 
d="M295 989q0 -119 -142 -119q-41 0 -72 25q-34 26 -34 66q0 87 101 211q147 -61 147 -183zM245 975q-10 70 -98 110q-45 -55 -45 -97q0 -16 22 -29q19 -11 37 -11q48 0 84 27z" />
    <glyph glyph-name="uE823" unicode="&#xe823;" 
d="M348 1146l-312 -125v79l312 128v-82zM348 981l-312 -125v80l312 127v-82z" />
    <glyph glyph-name="uE824" unicode="&#xe824;" 
d="M412 1120q2 -12 2 -23q0 -24 -8 -47q-21 8 -63 20q-36 -140 -170 -193q-3 15 0 74q2 49 -10 73q-19 -13 -65 -40l-6 88q34 18 85 44q29 -35 29 -132q49 16 93 103q-113 58 -113 85q0 52 38 104q40 57 90 57q63 0 63 -99q0 -41 -12 -97q7 -2 47 -17zM329 1224q0 49 -32 49
q-34 0 -57 -65q20 -19 75 -55q14 34 14 71z" />
    <glyph glyph-name="uE825" unicode="&#xe825;" 
d="M361 1018q0 -128 -78 -128q-49 0 -62 58q-22 -101 -91 -101q-56 0 -71 62q-7 29 -6 108q9 3 48 20q5 -112 34 -112q36 0 46 56q3 38 5 76l50 14q7 -101 40 -101q27 0 31 45q0 11 -2 85l47 15q9 -65 9 -97z" />
    <glyph glyph-name="uE826" unicode="&#xe826;" 
d="M299 -357l-313 -125v79l313 128v-82z" />
    <glyph glyph-name="uE827" unicode="&#xe827;" 
d="M285 -375l-313 -125v79l313 128v-82zM285 -540l-313 -125v79l313 128v-82z" />
    <glyph glyph-name="uE828" unicode="&#xe828;" 
d="M365 960q0 -128 -78 -128q-49 0 -62 58q-22 -101 -91 -101q-56 0 -71 62q-7 29 -6 108q9 3 48 20q5 -112 34 -112q36 0 46 56q3 38 5 76l50 14q7 -101 40 -101q27 0 31 45q0 11 -2 85l47 15q9 -65 9 -97zM343 1139l-312 -125v79l312 128v-82z" />
    <glyph glyph-name="uE829" unicode="&#xe829;" 
d="M375 940q0 -128 -78 -128q-49 0 -62 58q-22 -101 -91 -101q-56 0 -71 62q-7 29 -6 108q9 3 48 20q5 -112 34 -112q36 0 46 56q3 38 5 76l50 14q7 -101 40 -101q27 0 31 45q0 11 -2 85l47 15q9 -65 9 -97zM372 1106q-19 6 -75 25q-52 -60 -86 -87q-61 -47 -149 -76v82
q119 30 179 100q-109 58 -109 71q0 49 45 110q50 68 108 68q30 0 48 -38q15 -31 15 -63q0 -43 -23 -102q22 -10 47 -16v-74zM296 1276q0 19 -13 38t-31 19q-36 0 -66 -71q47 -38 95 -55q15 41 15 69z" />
    <glyph glyph-name="uE82A" unicode="&#xe82a;" 
d="M375 950q0 -128 -78 -128q-49 0 -62 58q-22 -101 -91 -101q-56 0 -71 62q-7 29 -6 108q9 3 48 20q5 -112 34 -112q36 0 46 56q3 38 5 76l50 14q7 -101 40 -101q27 0 31 45q0 11 -2 85l47 15q9 -65 9 -97zM356 1352l-312 -125v79l312 128v-82zM356 1187l-312 -125v80
l312 127v-82z" />
    <glyph glyph-name="uE82B" unicode="&#xe82b;" 
d="M395 903q0 -128 -78 -128q-49 0 -62 58q-22 -101 -91 -101q-56 0 -71 62q-7 29 -6 108q9 3 48 20q5 -112 34 -112q36 0 46 56q3 38 5 76l50 14q7 -101 40 -101q27 0 31 45q0 11 -2 85l47 15q9 -65 9 -97zM366 1182q2 -12 2 -23q0 -24 -8 -47q-21 8 -63 20
q-36 -140 -170 -193q-3 15 0 74q2 49 -10 73q-19 -13 -65 -40l-6 88q34 18 85 44q29 -35 29 -132q49 16 93 103q-113 58 -113 85q0 52 38 104q40 57 90 57q63 0 63 -99q0 -41 -12 -97q7 -2 47 -17zM283 1286q0 49 -32 49q-34 0 -57 -65q20 -19 75 -55q14 34 14 71z" />
    <glyph glyph-name="uE82C" unicode="&#xe82c;" 
d="M375 1200q0 -128 -78 -128q-49 0 -62 58q-22 -101 -91 -101q-56 0 -71 62q-7 29 -6 108q9 3 48 20q5 -112 34 -112q36 0 46 56q3 38 5 76l50 14q7 -101 40 -101q27 0 31 45q0 11 -2 85l47 15q9 -65 9 -97zM396 953l-313 -125v79l313 128v-82z" />
    <glyph glyph-name="uE82D" unicode="&#xe82d;" 
d="M375 1231q0 -128 -78 -128q-49 0 -62 58q-22 -101 -91 -101q-56 0 -71 62q-7 29 -6 108q9 3 48 20q5 -112 34 -112q36 0 46 56q3 38 5 76l50 14q7 -101 40 -101q27 0 31 45q0 11 -2 85l47 15q9 -65 9 -97zM396 999l-313 -125v79l313 128v-82zM396 834l-313 -125v79
l313 128v-82z" />
    <glyph glyph-name="glyph218" horiz-adv-x="1" 
d="M600 583l-4 -302l-47 28l3 303z" />
  </font>
</defs>
</svg>
